Richard Clayderman - Zeit Zum Traumen (1984) [FLAC|Lossless|image + .cue]<Pop, Classical>

 Статистика раздачи 
Размер: 235.69 МБ   |  Зарегистрирован: 06 янв 2018, 16:09   |   .torrent скачан: 0 раз
Сидеров: 0  [ 0 байт/сек ]     Личеров: 1  [ 0 байт/сек ]  
  
Аватара пользователя
 
Раздал: 1.65 ТБ
Скачал: 4.12 ГБ
Ратио: 410.215
Сообщения: 105977
Стаж: 1 год 1 месяц 1 день

Richard Clayderman - Zeit Zum Traumen (1984)

Год: 1984
Жанр: Pop, Classical
Издание: Teldec 8.25999
Источник (релизер): eloychik ®
Продолжительность: 00:46:07

Кодек: FLAC
Битрейт: Lossless
Тип рипа: image + .cue

Треклист:
01. Woman In Love 2:28
02. I Have A Dream 3:08
03. Bright Eyes2:52
04. Hey Jude 2:44
05. Bridge Over Troubled Water 3:03
06. Up Where We Belong 2:56
07. Juliet 3:09
08. Don't Cry For Me Argentina 2:38
09. Blue Eyes 3:04
10. The Most Beautiful Girl 2:33
11. Chariots Of Fire 2:58
12. Flashdance...What A Feeling2:36
13. Ebony And Ivory 2:43
14. Memory 3:03
15. Feelings 3:10
16. Only You 2:20
Код: выделить все
Exact Audio Copy V1.3 from 2. September 2016

Отчёт EAC об извлечении, выполненном 27. декабря 2017, 13:33

Richard Clayderman / Zeit zum Traumen

Дисковод: ASUS    DRW-24D5MT   Adapter: 1  ID: 0

Режим чтения                 : Достоверность
Использование точного потока : Да
Отключение кэша аудио        : Да
Использование указателей C2  : Нет

Коррекция смещения при чтении                     : 6
Способность читать области Lead-in и Lead-out     : Нет
Заполнение пропущенных сэмплов тишиной            : Да
Удаление блоков с тишиной в начале и конце        : Нет
При вычислениях CRC использовались нулевые сэмплы : Да
Интерфейс                                         : Встроенный Win32-интерфейс для Win NT/2000

Выходной формат          : Пользовательский кодировщик
Выбранный битрейт        : 128 kBit/s
Качество                 : Высокий
Добавление ID3-тега      : Нет
Утилита сжатия           : C:\Program Files (x86)\Exact Audio Copy\Flac\flac.exe
Дополнительные параметры : -V -8 -T "Date=%year%" -T "Genre=%genre%" %source%

TOC извлечённого CD

     Трек |   Старт  | Длительность | Начальный сектор | Конечный сектор
    ---------------------------------------------------------------------
       1  |  0:00.32 |    2:29.73   |          32      |      11279
       2  |  2:30.30 |    3:09.72   |       11280      |      25526
       3  |  5:40.27 |    2:55.00   |       25527      |      38651
       4  |  8:35.27 |    2:47.00   |       38652      |      51176
       5  | 11:22.27 |    3:05.73   |       51177      |      65124
       6  | 14:28.25 |    2:58.70   |       65125      |      78544
       7  | 17:27.20 |    3:12.07   |       78545      |      92951
       8  | 20:39.27 |    2:39.05   |       92952      |     104881
       9  | 23:18.32 |    3:05.00   |      104882      |     118756
      10  | 26:23.32 |    2:36.60   |      118757      |     130516
      11  | 29:00.17 |    3:00.13   |      130517      |     144029
      12  | 32:00.30 |    2:39.00   |      144030      |     155954
      13  | 34:39.30 |    2:46.02   |      155955      |     168406
      14  | 37:25.32 |    3:05.73   |      168407      |     182354
      15  | 40:31.30 |    3:14.02   |      182355      |     196906
      16  | 43:45.32 |    2:21.35   |      196907      |     207516

Характеристики диапазона извлечения и сообщения об ошибках

Выбранный диапазон

     Имя файла E:\Раздачи\NNMClub-eloychik ®\Richard Clayderman - Zeit Zum Traumen [NNM-CLUB.NAME]\Richard Clayderman - Zeit zum Traumen.wav

     Пиковый уровень 87.3 %
     Скорость извлечения 1.6 X
     Качество диапазона 99.9 %
     CRC теста 2C07F18B
     CRC копии 2C07F18B
     Копирование... OK

Ошибок не произошло

AccurateRip: сводка

Трек  1  отсутствует в базе данных
Трек  2  отсутствует в базе данных
Трек  3  отсутствует в базе данных
Трек  4  отсутствует в базе данных
Трек  5  отсутствует в базе данных
Трек  6  отсутствует в базе данных
Трек  7  отсутствует в базе данных
Трек  8  отсутствует в базе данных
Трек  9  отсутствует в базе данных
Трек 10  отсутствует в базе данных
Трек 11  отсутствует в базе данных
Трек 12  отсутствует в базе данных
Трек 13  отсутствует в базе данных
Трек 14  отсутствует в базе данных
Трек 15  отсутствует в базе данных
Трек 16  отсутствует в базе данных

Ни одного трека нет в базе AccurateRip

Конец отчёта

==== Контрольная сумма отчёта 1AAFCF65ABECF1D9BA433BF1C48A6C1A764FA6D3F9C73922C43CAB085BD3BF00 ====

Код: выделить все
REM GENRE "Pop, Classical"
REM DATE 1984
REM DISCID C20ACE10
REM COMMENT "ExactAudioCopy v1.3"
PERFORMER "Richard Clayderman"
TITLE "Zeit zum Traumen"
REM COMPOSER ""
FILE "Richard Clayderman - Zeit zum Traumen.flac" WAVE
  TRACK 01 AUDIO
    TITLE "Woman In Love"
    PERFORMER "Richard Clayderman"
    REM COMPOSER ""
    INDEX 00 00:00:00
    INDEX 01 00:00:32
  TRACK 02 AUDIO
    TITLE "I Have A Dream"
    PERFORMER "Richard Clayderman"
    REM COMPOSER ""
    INDEX 00 02:28:70
    INDEX 01 02:30:30
  TRACK 03 AUDIO
    TITLE "Bright Eyes"
    PERFORMER "Richard Clayderman"
    REM COMPOSER ""
    INDEX 00 05:38:45
    INDEX 01 05:40:27
  TRACK 04 AUDIO
    TITLE "Hey Jude"
    PERFORMER "Richard Clayderman"
    REM COMPOSER ""
    INDEX 00 08:32:62
    INDEX 01 08:35:27
  TRACK 05 AUDIO
    TITLE "Bridge Over Troubled Water"
    PERFORMER "Richard Clayderman"
    REM COMPOSER ""
    INDEX 00 11:20:22
    INDEX 01 11:22:27
  TRACK 06 AUDIO
    TITLE "Up Where We Belong"
    PERFORMER "Richard Clayderman"
    REM COMPOSER ""
    INDEX 00 14:25:50
    INDEX 01 14:28:25
  TRACK 07 AUDIO
    TITLE "Juliet"
    PERFORMER "Richard Clayderman"
    REM COMPOSER ""
    INDEX 00 17:25:60
    INDEX 01 17:27:20
  TRACK 08 AUDIO
    TITLE "Don.t Cry For Me Argentina"
    PERFORMER "Richard Clayderman"
    REM COMPOSER ""
    INDEX 00 20:38:22
    INDEX 01 20:39:27
  TRACK 09 AUDIO
    TITLE "Blue Eyes"
    PERFORMER "Richard Clayderman"
    REM COMPOSER ""
    INDEX 00 23:17:45
    INDEX 01 23:18:32
  TRACK 10 AUDIO
    TITLE "The Most Beautiful Girl"
    PERFORMER "Richard Clayderman"
    REM COMPOSER ""
    INDEX 00 26:22:70
    INDEX 01 26:23:32
  TRACK 11 AUDIO
    TITLE "Chariots Of Fire"
    PERFORMER "Richard Clayderman"
    REM COMPOSER ""
    INDEX 00 28:57:55
    INDEX 01 29:00:17
  TRACK 12 AUDIO
    TITLE "Flashdance... What A Feeling"
    PERFORMER "Richard Clayderman"
    REM COMPOSER ""
    INDEX 00 31:59:32
    INDEX 01 32:00:30
  TRACK 13 AUDIO
    TITLE "Ebony And Ivory"
    PERFORMER "Richard Clayderman"
    REM COMPOSER ""
    INDEX 00 34:36:50
    INDEX 01 34:39:30
  TRACK 14 AUDIO
    TITLE "Memory"
    PERFORMER "Richard Clayderman"
    REM COMPOSER ""
    INDEX 00 37:23:27
    INDEX 01 37:25:32
  TRACK 15 AUDIO
    TITLE "Feelings"
    PERFORMER "Richard Clayderman"
    REM COMPOSER ""
    INDEX 00 40:29:47
    INDEX 01 40:31:30
  TRACK 16 AUDIO
    TITLE "Only You"
    PERFORMER "Richard Clayderman"
    REM COMPOSER ""
    INDEX 00 43:43:17
    INDEX 01 43:45:32

Код: выделить все
-----------------------

DON'T MODIFY THIS FILE

-----------------------

PERFORMER: auCDtect Task Manager, ver. 1.6.0 RC1 build 1.6.0.1
Copyright (c) 2008-2010 y-soft. All rights reserved
http://y-soft.org

ANALYZER: auCDtect: CD records authenticity detector, version 0.8.2
Copyright (c) 2004 Oleg Berngardt. All rights reserved.
Copyright (c) 2004 Alexander Djourik. All rights reserved.

FILE: Richard Clayderman - Zeit zum Traumen.flac
  Size: 239606187 Hash: CDC645F0C5946EAB8FB18947EBCA5339 Accuracy: -m0
  Conclusion: CDDA 99%
  Signature: 9F0786CC5ECC45FA7F8D29C3EAFD63A946BF8CEA


Время раздачи: Пн-Пт с 17:00 до 20:00 и по возможности
   
Торрент: Зарегистрирован [06 янв 2018, 16:09] Classical Скачать торрент Магнет ссылка
Скачать торрент
[ Размер 19.59 КБ / Просмотров 2 ]
Статус:
Проверен
 
.torrent скачан: 0 раз
Размер: 235.69 МБ (247 133 801 байт)
   Стать Автором раздачи
 
 
Цитата

Вернуться в Classical

Кто сейчас на конференции

Сейчас эту тему просматривают: нет зарегистрированных пользователей и гости: 1