Годзилла: Парад монстров / Уничтожить всех монстров / Kaiju soshingeki / Destroy All Monsters (1968) BDRip [H.264/1080p]

 Статистика раздачи 
Размер: 7.82 ГБ   |  Зарегистрирован: 05 янв 2018, 16:29   |   .torrent скачан: 0 раз
Сидеров: 0  [ 0 байт/сек ]     Личеров: 0  [ 0 байт/сек ]  
  
Аватара пользователя
Главный редактор
Главный редактор
Я на сайте
 
Раздал: 52.3 ТБ
Скачал: 2.55 ТБ
Ратио: 20.932
Сообщения: 145522
Стаж: 7 лет 11 месяцев 25 дней
Откуда: Санкт-Петербург

Годзилла: Парад монстров / Уничтожить всех монстров / Kaiju soshingeki / Destroy All Monsters (1968) BDRip [H.264/1080p]

Производство: Япония, Toho Company
Жанр: Ужасы, Фантастика, Боевик

Режиссер: Исиро Хонда
Актеры: Акира Кубо, Дзюн Тадзаки, Юкико Кобаяси, Ёсио Цутия, Кёко Аи, Эндрю Хьюз, Тётаро Тогин, Ёсифуми Тадзима, Кэндзи Сахара, Хисая Ито

Описание:
К 1999 году все гигантские земные монстры (в том числе и Годзилла) оказались пойманы и отправлены на небольшой японский островок для заточения и изучения. Однако группа инопланетян сумела подчинить себе чудовищ, освободить их и вновь направить против человечества. Команде астронавтов поручено в срочном порядке найти и ликвидировать базу злобных пришельцев, пока контролируемые ими монстры не сравняли с землёй все города планеты.



Рейтинг MPAA: G (нет возрастных ограничений)

Релиз от: NNM-Club

Продолжительность: 01:29:00
Качество видео: BDRip 1080
Перевод: Одноголосый закадровый (автор неизвестен)
Субтитры: Английские

Видео: AVC/H.264, 1920х792, ~11,4 Mbps
Аудио: 1 AC3, 6 ch, 448 kbps - Русский
Аудио: 2 DTS, 2 ch, 768 kbps - Японский
Код: Выделить всё
Complete name               : Destroy All Monsters.(1968).BDRip.1080p.mkv
Format                      : Matroska
Format version              : Version 4 / Version 2
File size                   : 7.82 GiB
Duration                    : 1 h 29 min
Overall bit rate            : 12.6 Mb/s
Movie name                  : Destroy All Monsters.(1968).BDRip.1080p
Encoded date                : UTC 2017-03-16 19:58:02
Writing application         : mkvmerge v8.3.0 ('Over the Horizon') 64bit
Writing library             : libebml v1.3.1 + libmatroska v1.4.2

Video
ID                          : 1
Format                      : AVC
Format/Info                 : Advanced Video Codec
Format profile              : [url=http://nnm-club.name/mailto:High@L4.1]High@L4.1[/url]
Format settings, CABAC      : Yes
Format settings, ReFrames   : 5 frames
Codec ID                    : V_MPEG4/ISO/AVC
Duration                    : 1 h 29 min
Bit rate                    : 11.4 Mb/s
Width                       : 1 920 pixels
Height                      : 792 pixels
Display aspect ratio        : 2.40:1
Frame rate mode             : Constant
Frame rate                  : 23.976 (24000/1001) FPS
Color space                 : YUV
Chroma subsampling          : 4:2:0
Bit depth                   : 8 bits
Scan type                   : Progressive
Bits/(Pixel*Frame)          : 0.312
Stream size                 : 7.06 GiB (90%)
Title                       : Destroy All Monsters.(1968).BDRip.1080p
Writing library             : x264 core 148 r2744 b97ae06
Encoding settings           : cabac=1 / ref=5 / deblock=1:-3:-3 / analyse=0x3:0x113 / me=umh / subme=8 / psy=1 / psy_rd=1.00:0.25 / mixed_ref=1 / me_range=24 / chroma_me=1 / trellis=1 / 8x8dct=1 / cqm=0 / deadzone=21,11 / fast_pskip=1 / chroma_qp_offset=-4 / threads=24 / lookahead_threads=4 / sliced_threads=0 / nr=0 / decimate=1 / interlaced=0 / bluray_compat=0 / constrained_intra=0 / bframes=3 / b_pyramid=2 / b_adapt=1 / b_bias=0 / direct=3 / weightb=1 / open_gop=0 / weightp=2 / keyint=240 / keyint_min=24 / scenecut=40 / intra_refresh=0 / rc_lookahead=50 / rc=2pass / mbtree=1 / bitrate=11363 / ratetol=1.0 / qcomp=0.60 / qpmin=0 / qpmax=69 / qpstep=4 / cplxblur=20.0 / qblur=0.5 / ip_ratio=1.40 / aq=1:0.75
Language                    : Japanese
Default                     : Yes
Forced                      : No

Audio #1
ID                          : 2
Format                      : AC-3
Format/Info                 : Audio Coding 3
Mode extension              : CM (complete main)
Format settings, Endianness : Big
Codec ID                    : A_AC3
Duration                    : 1 h 28 min
Bit rate mode               : Constant
Bit rate                    : 448 kb/s
Channel(s)                  : 6 channels
Channel positions           : Front: L C R, Side: L R, LFE
Sampling rate               : 48.0 kHz
Frame rate                  : 31.250 FPS (1536 spf)
Bit depth                   : 16 bits
Compression mode            : Lossy
Stream size                 : 284 MiB (4%)
Title                       : AC3 5.1 @ 448 kbps - AVO, Somebody
Language                    : Russian
Default                     : Yes
Forced                      : No

Audio #2
ID                          : 3
Format                      : DTS
Format/Info                 : Digital Theater Systems
Mode                        : 16
Format settings, Endianness : Big
Codec ID                    : A_DTS
Duration                    : 1 h 29 min
Bit rate mode               : Constant
Bit rate                    : 768 kb/s
Channel(s)                  : 2 channels
Channel positions           : Front: L R
Sampling rate               : 48.0 kHz
Frame rate                  : 93.750 FPS (512 spf)
Bit depth                   : 16 bits
Compression mode            : Lossy
Stream size                 : 489 MiB (6%)
Title                       : DTS 2.0 @ 768 kbps - Original
Language                    : Japanese
Default                     : No
Forced                      : No

Text #1
ID                          : 4
Format                      : UTF-8
Codec ID                    : S_TEXT/UTF8
Codec ID/Info               : UTF-8 Plain Text
Duration                    : 1 h 28 min
Bit rate                    : 0 b/s
Count of elements           : 4
Stream size                 : 160 Bytes (0%)
Title                       : Forced
Language                    : English
Default                     : No
Forced                      : No

Text #2
ID                          : 5
Format                      : UTF-8
Codec ID                    : S_TEXT/UTF8
Codec ID/Info               : UTF-8 Plain Text
Duration                    : 1 h 28 min
Bit rate                    : 35 b/s
Count of elements           : 739
Stream size                 : 23.2 KiB (0%)
Title                       : Full
Language                    : English
Default                     : No
Forced                      : No

Menu
00:00:00.000                : en:00:00:00.000
00:09:18.600                : en:00:09:18.600
00:17:48.818                : en:00:17:48.818
00:25:28.193                : en:00:25:28.193
00:34:13.927                : en:00:34:13.927
00:44:55.026                : en:00:44:55.026
00:55:56.562                : en:00:55:56.562
01:06:00.415                : en:01:06:00.415
01:13:38.414                : en:01:13:38.414
01:20:52.264                : en:01:20:52.264

Скриншоты:




Время раздачи: 24/7 (круглосуточно) (до появления первых 3-5 скачавших)
Не забывайте говорить Спасибо. Не уходите с раздачи!   
Торрент: Зарегистрирован [05 янв 2018, 16:29] Для скачивания .torrent
необходима регистрация
Или скачать с помощью
MediaGet
Статус:
Проверен
 
.torrent скачан: 0 раз
Размер: 7.82 ГБ (8 398 643 877 байт)
   Стать Автором раздачи
   
Цитата
  • Похожие торренты
    Ответы
    Просмотры
    Последнее сообщение

Вернуться в Азиатское кино (DVD, HD Video)

Кто сейчас на конференции

Сейчас эту тему просматривают: нет зарегистрированных пользователей и гости: 1