(Rock) Foreigner - Double Vision (1982), APE (image + .cue), lossless

 Статистика раздачи 
Размер: 220.54 МБ   |  Зарегистрирован: 31 авг 2011, 06:25   |   .torrent скачан: 0 раз
Сидеров: 0  [ 0 байт/сек ]     Личеров: 2038  [ 0 байт/сек ]  
  
Аватара пользователя
 
Раздал: 19.06 ТБ
Скачал: 61.55 ГБ
Ратио: 325.857
Сообщения: 343
Стаж: 7 лет 9 месяцев 20 дней
Откуда: Зеленоград

Foreigner - Double Vision

Страна: USA
Жанр: Rock
Дата выхода: 20 June 1978
Лейбл: Atlantic Records
Формат аудио: APE (image + .cue)
Битрэйт: lossless
Продолжительность: 00:38:02
1."Hot Blooded" (Gramm, Jones) – 4:29
2."Blue Morning, Blue Day" (Jones, Gramm) – 3:12
3."You're All I Am" (Jones) – 3:24
4."Back Where You Belong" (Jones) – 3:15
5."Love Has Taken Its Toll" (Gramm, McDonald) – 3:31
6."Double Vision" (Jones, Gramm) – 3:44
7."Tramontane" (Greenwood, Jones, McDonald) – 3:55
8."I Have Waited So Long" (Jones) – 4:06
9."Lonely Children" (Jones) – 3:37
10."Spellbinder" (Gramm, Jones) – 4:49

Код: Выделить всё
Exact Audio Copy V0.99 prebeta 5 from 4. May 2009

Отчёт EAC об извлечении, выполненном 31. августа 2011, 1:45

Foreigner / Double Vision

Дисковод: Optiarc DVD RW AD-7203S   Adapter: 6  ID: 0

Режим чтения                 : Достоверность
Использование точного потока : Да
Отключение кэша аудио        : Да
Использование указателей C2  : Да

Коррекция смещения при чтении                     : 48
Способность читать области Lead-in и Lead-out     : Нет
Заполнение пропущенных сэмплов тишиной            : Да
Удаление блоков с тишиной в начале и конце        : Нет
При вычислениях CRC использовались нулевые сэмплы : Да
Интерфейс                                         : Встроенный Win32-интерфейс для Win NT/2000

Выходной формат : Внутренние WAV-операции
Формат сэмплов  : 44.100 Гц; 16 бит; стерео


TOC извлечённого CD

     Трек |   Старт  | Длительность | Начальный сектор | Конечный сектор
    ---------------------------------------------------------------------
       1  |  0:00.00 |    4:25.72   |           0      |      19946     
       2  |  4:25.72 |    3:09.58   |       19947      |      34179     
       3  |  7:35.55 |    3:21.50   |       34180      |      49304     
       4  | 10:57.30 |    3:14.10   |       49305      |      63864     
       5  | 14:11.40 |    3:29.05   |       63865      |      79544     
       6  | 17:40.45 |    3:43.15   |       79545      |      96284     
       7  | 21:23.60 |    3:55.22   |       96285      |     113931     
       8  | 25:19.07 |    4:07.03   |      113932      |     132459     
       9  | 29:26.10 |    3:35.65   |      132460      |     148649     
      10  | 33:02.00 |    4:45.57   |      148650      |     170081     


Характеристики диапазона извлечения и сообщения об ошибках

Выбранный диапазон

     Имя файла C:\Music\Foreigner\Double Vision\Foreigner - Double Vision.wav

     Пиковый уровень 100.0 %
     Качество диапазона 100.0 %
     CRC копии AE2452F3
     Копирование... OK

Ошибок не произошло

 
AccurateRip: сводка
 
Трек  1  точность не определена (достоверность 14)  [0C47E7C9], AccurateRip вернул [24FD1F03]
Трек  2  точность не определена (достоверность 14)  [8E95FAE6], AccurateRip вернул [2D309930]
Трек  3  точность не определена (достоверность 14)  [5BC4939B], AccurateRip вернул [51439949]
Трек  4  точность не определена (достоверность 14)  [94C15AF6], AccurateRip вернул [BD6B8E31]
Трек  5  точность не определена (достоверность 14)  [D9BA54D4], AccurateRip вернул [86EC9F1C]
Трек  6  точность не определена (достоверность 14)  [475833EC], AccurateRip вернул [1A177E7A]
Трек  7  точность не определена (достоверность 14)  [882CA36D], AccurateRip вернул [233EA9AA]
Трек  8  точность не определена (достоверность 14)  [A91FD858], AccurateRip вернул [DE682F5B]
Трек  9  точность не определена (достоверность 14)  [A6C070AC], AccurateRip вернул [86313CE0]
Трек 10  точность не определена (достоверность 14)  [8D726949], AccurateRip вернул [9296C163]
 
Ни один трек не прошёл проверки на точность
В вашей базе может быть иной вариант штамповки диска

Конец отчёта

Код: Выделить всё
REM GENRE Rock
REM DATE 1978
REM DISCID 9308DB0A
REM COMMENT "ExactAudioCopy v0.99pb5"
PERFORMER "Foreigner"
TITLE "Double Vision"
FILE "Foreigner - Double Vision.wav" WAVE
  TRACK 01 AUDIO
    TITLE "Hot Blooded"
    PERFORMER "Foreigner"
    INDEX 01 00:00:00
  TRACK 02 AUDIO
    TITLE "Blue Morning, Blue Day"
    PERFORMER "Foreigner"
    INDEX 00 04:23:47
    INDEX 01 04:25:72
  TRACK 03 AUDIO
    TITLE "You're All I Am"
    PERFORMER "Foreigner"
    INDEX 00 07:33:65
    INDEX 01 07:35:55
  TRACK 04 AUDIO
    TITLE "Back Where You Belong"
    PERFORMER "Foreigner"
    INDEX 00 10:55:29
    INDEX 01 10:57:30
  TRACK 05 AUDIO
    TITLE "Love Has Taken Its Toll"
    PERFORMER "Foreigner"
    INDEX 00 14:09:40
    INDEX 01 14:11:40
  TRACK 06 AUDIO
    TITLE "Double Vision"
    PERFORMER "Foreigner"
    INDEX 00 17:38:43
    INDEX 01 17:40:45
  TRACK 07 AUDIO
    TITLE "Tramontane (Instrumental)"
    PERFORMER "Foreigner"
    INDEX 00 21:21:45
    INDEX 01 21:23:60
  TRACK 08 AUDIO
    TITLE "I Have Waited So Long"
    PERFORMER "Foreigner"
    INDEX 00 25:16:72
    INDEX 01 25:19:07
  TRACK 09 AUDIO
    TITLE "Lonely Children"
    PERFORMER "Foreigner"
    INDEX 00 29:23:74
    INDEX 01 29:26:10
  TRACK 10 AUDIO
    TITLE "Spellbinder"
    PERFORMER "Foreigner"
    INDEX 00 33:00:17
    INDEX 01 33:02:00
   
Торрент: Зарегистрирован [31 авг 2011, 06:25] Rock Скачать торрент Магнет ссылка
Скачать торрент
[ Размер 17.56 КБ / Просмотров 328 ]
Статус:
Проверен
 
.torrent скачан: 0 раз
Размер: 220.54 МБ (231 248 339 байт)
   Стать Автором раздачи
 
 
Цитата

Вернуться в Rock

Кто сейчас на конференции

Сейчас эту тему просматривают: нет зарегистрированных пользователей и гости: 1