(Rock) Foreigner - Records (1982), FLAC (image + .cue), lossless

 Статистика раздачи 
Размер: 273.97 МБ   |  Зарегистрирован: 30 авг 2011, 03:36   |   .torrent скачан: 0 раз
Сидеров: 2  [ 0 байт/сек ]     Личеров: 2291  [ 0 байт/сек ]  
  
Аватара пользователя
 
Раздал: 19.06 ТБ
Скачал: 61.55 ГБ
Ратио: 325.857
Сообщения: 342
Стаж: 8 лет 1 месяц 25 дней
Откуда: Зеленоград
СообщениеДобавлено: 30 авг 2011, 03:37


Foreigner - Records

Страна: USA
Жанр: Rock
Дата выхода: November 29, 1982
Формат аудио: FLAC (image + .cue)
Битрэйт: Lossless
Продолжительность: 00:39:23
1."Cold as Ice" – 3:19
2."Double Vision" – 3:29
3."Head Games" – 3:37
4."Waiting for a Girl Like You" – 4:35
5."Feels Like the First Time" (Jones) – 3:28
6."Urgent" (Jones) – 3:57
7."Dirty White Boy" – 3:13
8."Juke Box Hero" – 4:03
9."Long, Long Way From Home" (Gramm, Jones, McDonald) – 2:47
10."Hot Blooded" (Live) – 6:55

Код: Выделить всё
Exact Audio Copy V0.99 prebeta 5 from 4. May 2009

Отчёт EAC об извлечении, выполненном 29. августа 2011, 6:31

Foreigner / Records

Дисковод: TEAC    CD-W552E   Adapter: 1  ID: 0

Режим чтения                 : Достоверность
Использование точного потока : Да
Отключение кэша аудио        : Да
Использование указателей C2  : Да

Коррекция смещения при чтении                     : 6
Способность читать области Lead-in и Lead-out     : Нет
Заполнение пропущенных сэмплов тишиной            : Да
Удаление блоков с тишиной в начале и конце        : Нет
При вычислениях CRC использовались нулевые сэмплы : Да
Интерфейс                                         : Встроенный Win32-интерфейс для Win NT/2000

Выходной формат     : Внутренние WAV-операции
Формат сэмплов      : 44.100 Гц; 16 бит; стерео
Смещение при сжатии : 0


TOC извлечённого CD

     Трек |   Старт  | Длительность | Начальный сектор | Конечный сектор
    ---------------------------------------------------------------------
       1  |  0:00.00 |    3:22.07   |           0      |      15156     
       2  |  3:22.07 |    3:30.68   |       15157      |      30974     
       3  |  6:53.00 |    3:37.47   |       30975      |      47296     
       4  | 10:30.47 |    4:34.73   |       47297      |      67919     
       5  | 15:05.45 |    3:29.22   |       67920      |      83616     
       6  | 18:34.67 |    3:57.18   |       83617      |     101409     
       7  | 22:32.10 |    3:14.57   |      101410      |     116016     
       8  | 25:46.67 |    4:04.18   |      116017      |     134334     
       9  | 29:51.10 |    2:51.02   |      134335      |     147161     
      10  | 32:42.12 |    6:55.65   |      147162      |     178351     


Характеристики диапазона извлечения и сообщения об ошибках

Выбранный диапазон

     Имя файла C:\Music\Foreigner\Foreigner - Records.wav

     Пиковый уровень 100.0 %
     Качество диапазона 99.9 %
     CRC копии C070C1CC
     Копирование завершено

Ошибок не произошло

 
AccurateRip: сводка
 
Трек  1  точность не определена (достоверность 35)  [7DECD7C7], AccurateRip вернул [6EBA6AD2]
Трек  2  точность не определена (достоверность 34)  [4401FFA9], AccurateRip вернул [6BDC0703]
Трек  3  точность не определена (достоверность 33)  [19319F45], AccurateRip вернул [9FD2A720]
Трек  4  точность не определена (достоверность 33)  [ED7B019C], AccurateRip вернул [CF986C30]
Трек  5  точность не определена (достоверность 34)  [6E725A75], AccurateRip вернул [FD0FB746]
Трек  6  точность не определена (достоверность 35)  [EE8214E2], AccurateRip вернул [6EBAE89E]
Трек  7  точность не определена (достоверность 34)  [DD54F447], AccurateRip вернул [085BE246]
Трек  8  точность не определена (достоверность 34)  [65AFCB6E], AccurateRip вернул [5A5C7D5D]
Трек  9  точность не определена (достоверность 34)  [695574E1], AccurateRip вернул [49221AB6]
Трек 10  точность не определена (достоверность 34)  [546BF806], AccurateRip вернул [2A7EC479]
 
Ни один трек не прошёл проверки на точность
В вашей базе может быть иной вариант штамповки диска

Конец отчёта

Код: Выделить всё
REM GENRE "Classic Rock"
REM DATE 1982
REM DISCID 7D094A0A
REM COMMENT "ExactAudioCopy v0.99pb5"
PERFORMER "Foreigner"
TITLE "Records"
FILE "Foreigner - Records.wav" WAVE
  TRACK 01 AUDIO
    TITLE "Cold As Ice"
    PERFORMER "Foreigner"
    INDEX 01 00:00:00
  TRACK 02 AUDIO
    TITLE "Double Vision"
    PERFORMER "Foreigner"
    INDEX 00 00:03:65
    INDEX 01 03:22:07
  TRACK 03 AUDIO
    TITLE "Head Games"
    PERFORMER "Foreigner"
    INDEX 01 06:53:00
  TRACK 04 AUDIO
    TITLE "Waiting For A Girl Like You"
    PERFORMER "Foreigner"
    INDEX 01 10:30:47
  TRACK 05 AUDIO
    TITLE "Feels Like The First Time"
    PERFORMER "Foreigner"
    INDEX 01 15:05:45
  TRACK 06 AUDIO
    TITLE "Urgent"
    PERFORMER "Foreigner"
    INDEX 01 18:34:67
  TRACK 07 AUDIO
    TITLE "Dirty White Boy"
    PERFORMER "Foreigner"
    INDEX 01 22:32:10
  TRACK 08 AUDIO
    TITLE "Juke Box Hero"
    PERFORMER "Foreigner"
    INDEX 01 25:46:67
  TRACK 09 AUDIO
    TITLE "Long, Long Way From Home"
    PERFORMER "Foreigner"
    INDEX 01 29:51:10
  TRACK 10 AUDIO
    TITLE "Hot Blooded"
    PERFORMER "Foreigner"
    INDEX 01 32:42:12
Не забывайте говорить Спасибо. Не уходите с раздачи!   
Торрент: Зарегистрирован [30 авг 2011, 03:36] Для скачивания .torrent
необходима регистрация
Или скачать с помощью
MediaGet
Статус:
Проверен
 
.torrent скачан: 0 раз
Хэш: 130b6a11b14a74e267273bbd68c57b1b3cd40f9b
Размер: 273.97 МБ (287 276 778 байт)
   Стать Автором раздачи
   
Цитата

Вернуться в Rock

Кто сейчас на конференции

Сейчас эту тему просматривают: нет зарегистрированных пользователей и гости: 1