(Rock) Nazareth - No Jive (1991), APE (image + .cue), lossless

 Статистика раздачи 
Размер: 255.99 МБ   |  Зарегистрирован: 29 авг 2011, 16:03   |   .torrent скачан: 0 раз
Сидеров: 2  [ 0 байт/сек ]     Личеров: 2291  [ 0 байт/сек ]  
  
Аватара пользователя
 
Раздал: 19.06 ТБ
Скачал: 61.55 ГБ
Ратио: 325.857
Сообщения: 342
Стаж: 8 лет 1 месяц 25 дней
Откуда: Зеленоград
СообщениеДобавлено: 29 авг 2011, 16:03


Nazareth - No Jive

Страна: England
Жанр: Rock
Дата выхода: November 1991
Лейбл: Griffin
Формат аудио: APE (image + .cue)
Битрэйт: Lossless
Продолжительность: 00:46:07
1.Hire And Fire (Rankin/McCafferty/Agnew) (5:10)
2.Do You Wanna Play House (Rankin/Agnew) (5:01)
3.Right Between The Eyes (Rankin) 3:06
4.Every Time It Rains (Rankin) (4:14)
5.Keeping Our Love Alive (3:18)
6.Thinkin' Man’s Nightmare (4:01)
7.Cover Your Heart (Rankin) (4:32)
8.Lap Of Luxury (3:55)
9.The Rowan Tree/Tell Me That You Love Me (4:39)
10.Cry Wolf (Rankin/McCafferty) (4:25)

Код: Выделить всё
Exact Audio Copy V0.99 prebeta 5 from 4. May 2009

Отчёт EAC об извлечении, выполненном 29. августа 2011, 15:11

Nazareth / No Jive

Дисковод: TEAC    CD-W552E   Adapter: 1  ID: 0

Режим чтения                 : Достоверность
Использование точного потока : Да
Отключение кэша аудио        : Да
Использование указателей C2  : Да

Коррекция смещения при чтении                     : 6
Способность читать области Lead-in и Lead-out     : Нет
Заполнение пропущенных сэмплов тишиной            : Да
Удаление блоков с тишиной в начале и конце        : Нет
При вычислениях CRC использовались нулевые сэмплы : Да
Интерфейс                                         : Встроенный Win32-интерфейс для Win NT/2000

Выходной формат     : Внутренние WAV-операции
Формат сэмплов      : 44.100 Гц; 16 бит; стерео
Смещение при сжатии : 0


TOC извлечённого CD

     Трек |   Старт  | Длительность | Начальный сектор | Конечный сектор
    ---------------------------------------------------------------------
       1  |  0:00.00 |    5:10.65   |           0      |      23314     
       2  |  5:10.65 |    5:01.53   |       23315      |      45942     
       3  | 10:12.43 |    3:06.10   |       45943      |      59902     
       4  | 13:18.53 |    4:14.37   |       59903      |      78989     
       5  | 17:33.15 |    3:18.35   |       78990      |      93874     
       6  | 20:51.50 |    4:01.07   |       93875      |     111956     
       7  | 24:52.57 |    4:32.25   |      111957      |     132381     
       8  | 29:25.07 |    3:55.16   |      132382      |     150022     
       9  | 33:20.23 |    4:39.36   |      150023      |     170983     
      10  | 37:59.59 |    4:25.36   |      170984      |     190894     


Характеристики диапазона извлечения и сообщения об ошибках

Выбранный диапазон

     Имя файла C:\DopTorrents\Nazareth - No Jive\Nazareth - No Jive.wav

     Пиковый уровень 97.7 %
     Качество диапазона 100.0 %
     CRC копии CCB0F362
     Копирование... OK

Ошибок не произошло

 
AccurateRip: сводка
 
Трек  1  нет в базе данных
Трек  2  нет в базе данных
Трек  3  нет в базе данных
Трек  4  нет в базе данных
Трек  5  нет в базе данных
Трек  6  нет в базе данных
Трек  7  нет в базе данных
Трек  8  нет в базе данных
Трек  9  нет в базе данных
Трек 10  нет в базе данных
 
Ни одного трека нет в базе AccurateRip

Конец отчёта

Код: Выделить всё
REM GENRE "Classic Rock"
REM DATE 1991
REM DISCID 6909F10A
REM COMMENT "ExactAudioCopy v0.99pb5"
PERFORMER "Nazareth"
TITLE "No Jive"
FILE "Nazareth - No Jive.wav" WAVE
  TRACK 01 AUDIO
    TITLE "Hire And Fire"
    PERFORMER "Nazareth"
    INDEX 01 00:00:00
  TRACK 02 AUDIO
    TITLE "Do You Wanna Play House"
    PERFORMER "Nazareth"
    INDEX 00 00:03:65
    INDEX 01 05:10:65
  TRACK 03 AUDIO
    TITLE "Right Between The Eyes"
    PERFORMER "Nazareth"
    INDEX 01 10:12:43
  TRACK 04 AUDIO
    TITLE "Every Time It Rains"
    PERFORMER "Nazareth"
    INDEX 01 13:18:53
  TRACK 05 AUDIO
    TITLE "Keeping Our Love Alive"
    PERFORMER "Nazareth"
    INDEX 01 17:33:15
  TRACK 06 AUDIO
    TITLE "Thinking Man's Nightmare"
    PERFORMER "Nazareth"
    INDEX 01 20:51:50
  TRACK 07 AUDIO
    TITLE "Cover Your Heart"
    PERFORMER "Nazareth"
    INDEX 01 24:52:57
  TRACK 08 AUDIO
    TITLE "Lap Of Luxury"
    PERFORMER "Nazareth"
    INDEX 01 29:25:07
  TRACK 09 AUDIO
    TITLE "The Roman Tree\Tell Me That You Love Me"
    PERFORMER "Nazareth"
    INDEX 01 33:20:23
  TRACK 10 AUDIO
    TITLE "Cry Wolf"
    PERFORMER "Nazareth"
    INDEX 01 37:59:59
Не забывайте говорить Спасибо. Не уходите с раздачи!   
Торрент: Зарегистрирован [29 авг 2011, 16:03] Для скачивания .torrent
необходима регистрация
Или скачать с помощью
MediaGet
Статус:
Проверен
 
.torrent скачан: 0 раз
Хэш: fe16c362925a7d526e9a70daab12360423fb7401
Размер: 255.99 МБ (268 425 918 байт)
   Стать Автором раздачи
   
Цитата
  • Похожие торренты
    Ответы
    Просмотры
    Последнее сообщение

Вернуться в Rock

Кто сейчас на конференции

Сейчас эту тему просматривают: нет зарегистрированных пользователей и гости: 1