(Rock/Hard Rock) Nazareth - RazAmaNaz (1973), APE (image + .cue), lossless

 Статистика раздачи 
Размер: 257.36 МБ   |  Зарегистрирован: 29 авг 2011, 15:37   |   .torrent скачан: 0 раз
Сидеров: 0  [ 0 байт/сек ]     Личеров: 1928  [ 0 байт/сек ]  
  
Аватара пользователя
 
Раздал: 19.05 ТБ
Скачал: 54.52 ГБ
Ратио: 366.714
Сообщения: 344
Стаж: 7 лет 7 месяцев 23 дня
Откуда: Зеленоград

Nazareth - RazAmaNaz


Страна: England
Жанр: Rock/Hard Rock
Дата выхода: May 1973
Лейбл: A&M

Формат аудио: APE (image + .cue)
Битрэйт: Lossless
Продолжительность: 01:05:16
1.«Razamanaz» — 3:52
2.«Alcatraz» (Russell) — 4:23
3.«Vigilante Man» (Guthrie) — 5:21
4.«Woke Up This Morning» — 3:53
5.«Night Woman» — 3:29
6.«Bad, Bad Boy» — 3:57
7.«Sold My Soul» — 4:49
8.«Too Bad, Too Sad» — 2:55
9.«Broken Down Angel» — 3:45
10.«Hard Living» — 3:03
11.«Spinning Top» — 3:06
12.«Razamanaz» (Alternate Version) — 3:26

Дорожки 10-12 — бонус-треки к версии, переизданной на Eagle Records.

Код: Выделить всё
Exact Audio Copy V0.99 prebeta 5 from 4. May 2009

Отчёт EAC об извлечении, выполненном 29. августа 2011, 16:21

Nazareth / Razamanaz

Дисковод: Optiarc DVD RW AD-7203S   Adapter: 6  ID: 0

Режим чтения                 : Достоверность
Использование точного потока : Да
Отключение кэша аудио        : Да
Использование указателей C2  : Да

Коррекция смещения при чтении                     : 48
Способность читать области Lead-in и Lead-out     : Нет
Заполнение пропущенных сэмплов тишиной            : Да
Удаление блоков с тишиной в начале и конце        : Нет
При вычислениях CRC использовались нулевые сэмплы : Да
Интерфейс                                         : Встроенный Win32-интерфейс для Win NT/2000

Выходной формат : Внутренние WAV-операции
Формат сэмплов  : 44.100 Гц; 16 бит; стерео


TOC извлечённого CD

     Трек |   Старт  | Длительность | Начальный сектор | Конечный сектор
    ---------------------------------------------------------------------
       1  |  0:00.00 |    3:50.71   |           0      |      17320     
       2  |  3:50.71 |    4:23.53   |       17321      |      37098     
       3  |  8:14.49 |    5:21.25   |       37099      |      61198     
       4  | 13:35.74 |    3:53.12   |       61199      |      78685     
       5  | 17:29.11 |    3:31.01   |       78686      |      94511     
       6  | 21:00.12 |    3:57.41   |       94512      |     112327     
       7  | 24:57.53 |    4:47.48   |      112328      |     133900     
       8  | 29:45.26 |    2:55.69   |      133901      |     147094     
       9  | 32:41.20 |    3:45.33   |      147095      |     164002     
      10  | 36:26.53 |    3:01.58   |      164003      |     177635     
      11  | 39:28.36 |    3:06.25   |      177636      |     191610     
      12  | 42:34.61 |    3:28.36   |      191611      |     207246     


Характеристики диапазона извлечения и сообщения об ошибках

Выбранный диапазон

     Имя файла C:\Music\Nazareth - Razamanaz\Nazareth - Razamanaz.wav

     Пиковый уровень 99.9 %
     Качество диапазона 100.0 %
     CRC копии 459A072D
     Копирование... OK

Ошибок не произошло

 
AccurateRip: сводка
 
Трек  1  нет в базе данных
Трек  2  нет в базе данных
Трек  3  нет в базе данных
Трек  4  нет в базе данных
Трек  5  нет в базе данных
Трек  6  нет в базе данных
Трек  7  нет в базе данных
Трек  8  нет в базе данных
Трек  9  нет в базе данных
Трек 10  нет в базе данных
Трек 11  нет в базе данных
Трек 12  нет в базе данных
 
Ни одного трека нет в базе AccurateRip

Конец отчёта

Код: Выделить всё
REM GENRE "Hard Rock"
REM DATE 1973
REM DISCID B00ACB0C
REM COMMENT "ExactAudioCopy v0.99pb5"
PERFORMER "Nazareth"
TITLE "Razamanaz"
FILE "Nazareth - Razamanaz.wav" WAVE
  TRACK 01 AUDIO
    TITLE "Razamanaz"
    PERFORMER "Nazareth"
    INDEX 01 00:00:00
  TRACK 02 AUDIO
    TITLE "Alcatraz"
    PERFORMER "Nazareth"
    INDEX 01 03:50:71
  TRACK 03 AUDIO
    TITLE "Vigilante Man"
    PERFORMER "Nazareth"
    INDEX 00 08:14:45
    INDEX 01 08:14:49
  TRACK 04 AUDIO
    TITLE "Woke Up This Morning"
    PERFORMER "Nazareth"
    INDEX 00 13:35:63
    INDEX 01 13:35:74
  TRACK 05 AUDIO
    TITLE "Night Woman"
    PERFORMER "Nazareth"
    INDEX 00 17:28:66
    INDEX 01 17:29:11
  TRACK 06 AUDIO
    TITLE "Bad, Bad Boy"
    PERFORMER "Nazareth"
    INDEX 00 21:00:09
    INDEX 01 21:00:12
  TRACK 07 AUDIO
    TITLE "Sold My Soul"
    PERFORMER "Nazareth"
    INDEX 00 24:57:46
    INDEX 01 24:57:53
  TRACK 08 AUDIO
    TITLE "Too Bad, Too Sad"
    PERFORMER "Nazareth"
    INDEX 00 29:45:23
    INDEX 01 29:45:26
  TRACK 09 AUDIO
    TITLE "Broken Down Angel"
    PERFORMER "Nazareth"
    INDEX 01 32:41:20
  TRACK 10 AUDIO
    TITLE "Hard Living"
    PERFORMER "Nazareth"
    INDEX 00 36:26:51
    INDEX 01 36:26:53
  TRACK 11 AUDIO
    TITLE "Spinning Top"
    PERFORMER "Nazareth"
    INDEX 00 39:28:19
    INDEX 01 39:28:36
  TRACK 12 AUDIO
    TITLE "Razamanaz (Alternate Edit)"
    PERFORMER "Nazareth"
    INDEX 01 42:34:61
   
Торрент: Зарегистрирован [29 авг 2011, 15:37] Rock Скачать торрент Магнет ссылка
Скачать торрент
[ Размер 10.37 КБ / Просмотров 310 ]
Статус:
Проверен
 
.torrent скачан: 0 раз
Размер: 257.36 МБ (269 863 975 байт)
   Стать Автором раздачи
 
 
Цитата

Вернуться в Rock

Кто сейчас на конференции

Сейчас эту тему просматривают: нет зарегистрированных пользователей и гости: 1