(Rock)Pink Floyd - Total Eclipse - A Retrospective 1967-1993 [4CD] (1993), FLAC (image + .cue), lossless

 Статистика раздачи 
Размер: 1.56 ГБ   |  Зарегистрирован: 12 авг 2015, 13:34   |   .torrent скачан: 9 раз
Сидеров: 233  [ 0 байт/сек ]     Личеров: 31  [ 0 байт/сек ]  
  
Аватара пользователя
Администратор
Администратор
 
Раздал: 24.48 ТБ
Скачал: 388.83 ГБ
Ратио: 145.343
Сообщения: 6108
Стаж: 7 лет 7 месяцев 10 дней
Откуда: Lithuania

Pink Floyd - Total Eclipse. A Retrospective 1967-1993 (4CD)


Дата выхода: 1993
Жанр: Rock
Продолжительность: 01:12:00+01:18:59+01:11:39+01:17:36
Формат аудио: FLAC (image + .cue)
Битрэйт: lossless
Label: Great Dane Records
Catalog : GDR CD 9320. Made in Italy
CD1
01. Pink Floyd - Arnold Layne [2:57]
02. Pink Floyd - Candy And A Currant Bun [2:47]
03. Pink Floyd - See Emily Play [2:53]
04. Pink Floyd - Flaming [2:49]
05. Pink Floyd - The Scarecrow (Peel Sessions) [2:02]
06. Pink Floyd - The Gnome (Peel Sessions) [2:11]
07. Pink Floyd - Mathilda Mother (Peel Sessions) [3:22]
08. Pink Floyd - Scream Thy Last Scream [4:41]
09. Pink Floyd - Vegetable Man [2:31]
10. Pink Floyd - Apples And Oranges [3:07]
11. Pink Floyd - Pow R. Toc H. (Peel Sessions) [2:56]
12. Pink Floyd - Jugband Blues (Peel Sessions) [3:50]
13. Pink Floyd - Nick's Boogie [11:47]
14. Pink Floyd - It Would Be So Nice [3:44]
15. Pink Floyd - Julia Dream (Peel Sessions) [2:25]
16. Pink Floyd - Let There Be More Light (Peel Sessions) [3:40]
17. Pink Floyd - Murderistic Women (Peel Sessions) [3:51]
18. Pink Floyd - Massed Gadgets Of Hercules (Peel Sessions) [2:51]
19. Pink Floyd - Point Me At The Sky [3:34]
20. Pink Floyd - Baby Blue Shuffle In D Minor (Peel Sessions) [4:03]

[01:12:00]

CD2
01. Pink Floyd - The Embryo [3:26]
02. Pink Floyd - Green is the Color [3:29]
03. Pink Floyd - Careful with that Axe Eugene [7:14]
04. Pink Floyd - The Narrow Way - Part I [4:37]
05. Pink Floyd - Biding My Time [5:06]
06. Pink Floyd - Oneone/Fingal's Cave [8:11]
07. Pink Floyd - Rain in the Country [7:01]
08. Pink Floyd - The Violence Sequence [4:33]
09. Pink Floyd - If [4:27]
10. Pink Floyd - Cymbaline [10:49]
11. Pink Floyd - Atom Heart Mother [20:05]

[01:18:59]

CD3
01. Pink Floyd - Blues [5:09]
02. Pink Floyd - Breathe [2:59]
03. Pink Floyd - On the Run [6:22]
04. Pink Floyd - The Great Gig in the Sky [4:31]
05. Pink Floyd - Money [1:43]
06. Pink Floyd - Brain Damage/Eclipse [3:27]
07. Pink Floyd - Shine on You Crazy Diamond - Part I - V [23:32]
08. Pink Floyd - Raving and Drooling [10:45]
09. Pink Floyd - You've Gotta Be Crazy [13:11]

[01:11:39]

CD4
01. Pink Floyd - Echoes [21:26]
02. Pink Floyd - Pigs on the Wing Parts I & II [3:34]
03. Pink Floyd - Comfortably Numb [2:38]
04. Pink Floyd - When the Tigers Broke Free [2:56]
05. Pink Floyd - Mother [6:39]
06. Pink Floyd - What Shall We Do Now [4:42]
07. Pink Floyd - Bring the Boys Back Home [1:46]
08. Pink Floyd - Outside the Wall [4:10]
09. Pink Floyd - The Hero's Return Parts I & II [3:57]
10. Pink Floyd - Run Like Hell [7:25]
11. Pink Floyd - On the Turning Away [6:49]
12. Pink Floyd - Money [11:33]

[01:17:36]

Exact Audio Copy V0.99 prebeta 5 from 4. May 2009

Отчёт EAC об извлечении, выполненном 25. июня 2011, 12:24

Pink Floyd / Total Eclipse CD1

Дисковод: _NEC DVD_RW ND-4550A Adapter: 3 ID: 0

Режим чтения : Достоверность
Использование точного потока : Да
Отключение кэша аудио : Да
Использование указателей C2 : Нет

Коррекция смещения при чтении : 48
Способность читать области Lead-in и Lead-out : Нет
Заполнение пропущенных сэмплов тишиной : Да
Удаление блоков с тишиной в начале и конце : Нет
При вычислениях CRC использовались нулевые сэмплы : Да
Интерфейс : Установленный внешний ASPI-интерфейс

Выходной формат : Внутренние WAV-операции
Формат сэмплов : 44.100 Гц; 16 бит; стерео


TOC извлечённого CD

Трек | Старт | Длительность | Начальный сектор | Конечный сектор
---------------------------------------------------------------------
1 | 0:00.00 | 2:56.55 | 0 | 13254
2 | 2:56.55 | 2:46.52 | 13255 | 25756
3 | 5:43.32 | 2:53.00 | 25757 | 38731
4 | 8:36.32 | 2:48.63 | 38732 | 51394
5 | 11:25.20 | 2:01.72 | 51395 | 60541
6 | 13:27.17 | 2:11.35 | 60542 | 70401
7 | 15:38.52 | 3:21.45 | 70402 | 85521
8 | 19:00.22 | 4:40.65 | 85522 | 106586
9 | 23:41.12 | 2:30.48 | 106587 | 117884
10 | 26:11.60 | 3:07.10 | 117885 | 131919
11 | 29:18.70 | 2:56.10 | 131920 | 145129
12 | 32:15.05 | 3:49.55 | 145130 | 162359
13 | 36:04.60 | 11:47.30 | 162360 | 215414
14 | 47:52.15 | 3:44.05 | 215415 | 232219
15 | 51:36.20 | 2:25.00 | 232220 | 243094
16 | 54:01.20 | 3:40.15 | 243095 | 259609
17 | 57:41.35 | 3:50.70 | 259610 | 276929
18 | 61:32.30 | 2:51.25 | 276930 | 289779
19 | 64:23.55 | 3:34.02 | 289780 | 305831
20 | 67:57.57 | 4:02.50 | 305832 | 324031


Характеристики диапазона извлечения и сообщения об ошибках

Выбранный диапазон

Имя файла E:\rip-flacmusic.ru\Pink Floyd - Total Eclipse CD1.wav

Пиковый уровень 93.8 %
Качество диапазона 100.0 %
CRC копии 9F15E2F8
Копирование... OK

Ошибок не произошло


AccurateRip: сводка

Трек 1 точное извлечение (доверие 2) [49B3E091]
Трек 2 точное извлечение (доверие 2) [C803E1DD]
Трек 3 точное извлечение (доверие 2) [46E54416]
Трек 4 точное извлечение (доверие 2) [9973A061]
Трек 5 точное извлечение (доверие 2) [CF605329]
Трек 6 точное извлечение (доверие 2) [9AD70585]
Трек 7 точное извлечение (доверие 2) [858B1F4A]
Трек 8 точное извлечение (доверие 2) [B535FAA6]
Трек 9 точное извлечение (доверие 2) [C123931C]
Трек 10 точное извлечение (доверие 2) [5EA92D5A]
Трек 11 точное извлечение (доверие 2) [551B5CA8]
Трек 12 точное извлечение (доверие 2) [4965E125]
Трек 13 точное извлечение (доверие 2) [FED5BDB1]
Трек 14 точное извлечение (доверие 2) [0ECA6258]
Трек 15 точное извлечение (доверие 2) [F0DC09B0]
Трек 16 точное извлечение (доверие 2) [12898FF7]
Трек 17 точное извлечение (доверие 2) [676D8F41]
Трек 18 точное извлечение (доверие 2) [E76CD603]
Трек 19 точное извлечение (доверие 2) [CC6821CE]
Трек 20 точное извлечение (доверие 2) [2E780E59]

Все треки извлечены точно

Конец отчёта

Exact Audio Copy V0.99 prebeta 5 from 4. May 2009

Отчёт EAC об извлечении, выполненном 25. июня 2011, 12:26

Pink Floyd / Total Eclipse CD2

Дисковод: _NEC DVD_RW ND-4550A Adapter: 3 ID: 0

Режим чтения : Достоверность
Использование точного потока : Да
Отключение кэша аудио : Да
Использование указателей C2 : Нет

Коррекция смещения при чтении : 48
Способность читать области Lead-in и Lead-out : Нет
Заполнение пропущенных сэмплов тишиной : Да
Удаление блоков с тишиной в начале и конце : Нет
При вычислениях CRC использовались нулевые сэмплы : Да
Интерфейс : Установленный внешний ASPI-интерфейс

Выходной формат : Внутренние WAV-операции
Формат сэмплов : 44.100 Гц; 16 бит; стерео


TOC извлечённого CD

Трек | Старт | Длительность | Начальный сектор | Конечный сектор
---------------------------------------------------------------------
1 | 0:00.00 | 3:26.05 | 0 | 15454
2 | 3:26.05 | 3:28.60 | 15455 | 31114
3 | 6:54.65 | 7:14.35 | 31115 | 63699
4 | 14:09.25 | 4:36.45 | 63700 | 84444
5 | 18:45.70 | 5:06.10 | 84445 | 107404
6 | 23:52.05 | 8:11.22 | 107405 | 144251
7 | 32:03.27 | 7:01.00 | 144252 | 175826
8 | 39:04.27 | 4:32.60 | 175827 | 196286
9 | 43:37.12 | 4:27.30 | 196287 | 216341
10 | 48:04.42 | 10:49.35 | 216342 | 265051
11 | 58:54.02 | 20:05.33 | 265052 | 355459


Характеристики диапазона извлечения и сообщения об ошибках

Выбранный диапазон

Имя файла E:\rip-flacmusic.ru\Pink Floyd - Total Eclipse CD2.wav

Пиковый уровень 81.6 %
Качество диапазона 100.0 %
CRC копии FBC903E5
Копирование... OK

Ошибок не произошло


AccurateRip: сводка

Трек 1 точность не определена (достоверность 2) [1D02810C], AccurateRip вернул [9D102D62]
Трек 2 точность не определена (достоверность 2) [90EFE86C], AccurateRip вернул [4EDF064F]
Трек 3 точность не определена (достоверность 2) [D2B4366F], AccurateRip вернул [695BB2C1]
Трек 4 точное извлечение (доверие 2) [D325A1FA]
Трек 5 точное извлечение (доверие 2) [248BD91A]
Трек 6 нет в базе данных
Трек 7 нет в базе данных
Трек 8 точность не определена (достоверность 2) [AEBFA695], AccurateRip вернул [52616868]
Трек 9 нет в базе данных
Трек 10 точное извлечение (доверие 2) [9A0749D8]
Трек 11 точность не определена (достоверность 2) [AD4F7D50], AccurateRip вернул [4A69B70F]

3 трек(и) скопированы точно
5 трек(и) не удалось проверить на точность
3 трек(и) не содержатся в базе AccurateRip

Некоторые треки не прошли проверку на точность

Конец отчёта

Exact Audio Copy V0.99 prebeta 5 from 4. May 2009

Отчёт EAC об извлечении, выполненном 25. июня 2011, 12:28

Pink Floyd / Total Eclipse CD3

Дисковод: _NEC DVD_RW ND-4550A Adapter: 3 ID: 0

Режим чтения : Достоверность
Использование точного потока : Да
Отключение кэша аудио : Да
Использование указателей C2 : Нет

Коррекция смещения при чтении : 48
Способность читать области Lead-in и Lead-out : Нет
Заполнение пропущенных сэмплов тишиной : Да
Удаление блоков с тишиной в начале и конце : Нет
При вычислениях CRC использовались нулевые сэмплы : Да
Интерфейс : Установленный внешний ASPI-интерфейс

Выходной формат : Внутренние WAV-операции
Формат сэмплов : 44.100 Гц; 16 бит; стерео


TOC извлечённого CD

Трек | Старт | Длительность | Начальный сектор | Конечный сектор
---------------------------------------------------------------------
1 | 0:00.00 | 5:08.60 | 0 | 23159
2 | 5:08.60 | 2:59.22 | 23160 | 36606
3 | 8:08.07 | 6:21.48 | 36607 | 65229
4 | 14:29.55 | 4:31.37 | 65230 | 85591
5 | 19:01.17 | 1:43.30 | 85592 | 93346
6 | 20:44.47 | 3:26.45 | 93347 | 108841
7 | 24:11.17 | 23:32.20 | 108842 | 214761
8 | 47:43.37 | 10:44.38 | 214762 | 263099
9 | 58:28.00 | 13:11.00 | 263100 | 322424


Характеристики диапазона извлечения и сообщения об ошибках

Выбранный диапазон

Имя файла E:\rip-flacmusic.ru\Pink Floyd - Total Eclipse CD3.wav

Пиковый уровень 85.1 %
Качество диапазона 100.0 %
CRC копии 8B1D6450
Копирование... OK

Ошибок не произошло


AccurateRip: сводка

Трек 1 точное извлечение (доверие 2) [01B70F90]
Трек 2 точное извлечение (доверие 2) [42A5EBAC]
Трек 3 точное извлечение (доверие 2) [D4510703]
Трек 4 точное извлечение (доверие 2) [7276C320]
Трек 5 точное извлечение (доверие 2) [EC769F6C]
Трек 6 точное извлечение (доверие 2) [67150AAA]
Трек 7 точность не определена (достоверность 2) [722AB480], AccurateRip вернул [9BD5D5A7]
Трек 8 точность не определена (достоверность 2) [8F8806C2], AccurateRip вернул [DA843F65]
Трек 9 точное извлечение (доверие 2) [AD362C1B]

7 трек(и) скопированы точно
2 трек(и) не удалось проверить на точность

Некоторые треки не прошли проверку на точность

Конец отчёта

Exact Audio Copy V0.99 prebeta 5 from 4. May 2009

Отчёт EAC об извлечении, выполненном 25. июня 2011, 12:30

Pink Floyd / Total Eclipse CD4

Дисковод: _NEC DVD_RW ND-4550A Adapter: 3 ID: 0

Режим чтения : Достоверность
Использование точного потока : Да
Отключение кэша аудио : Да
Использование указателей C2 : Нет

Коррекция смещения при чтении : 48
Способность читать области Lead-in и Lead-out : Нет
Заполнение пропущенных сэмплов тишиной : Да
Удаление блоков с тишиной в начале и конце : Нет
При вычислениях CRC использовались нулевые сэмплы : Да
Интерфейс : Установленный внешний ASPI-интерфейс

Выходной формат : Внутренние WAV-операции
Формат сэмплов : 44.100 Гц; 16 бит; стерео


TOC извлечённого CD

Трек | Старт | Длительность | Начальный сектор | Конечный сектор
---------------------------------------------------------------------
1 | 0:00.00 | 21:26.37 | 0 | 96486
2 | 21:26.37 | 3:34.25 | 96487 | 112561
3 | 25:00.62 | 2:38.20 | 112562 | 124431
4 | 27:39.07 | 2:55.58 | 124432 | 137614
5 | 30:34.65 | 6:39.30 | 137615 | 167569
6 | 37:14.20 | 4:42.37 | 167570 | 188756
7 | 41:56.57 | 1:46.20 | 188757 | 196726
8 | 43:43.02 | 4:09.73 | 196727 | 215474
9 | 47:53.00 | 3:57.15 | 215475 | 233264
10 | 51:50.15 | 7:24.40 | 233265 | 266604
11 | 59:14.55 | 6:48.50 | 266605 | 297254
12 | 66:03.30 | 11:32.57 | 297255 | 349211


Характеристики диапазона извлечения и сообщения об ошибках

Выбранный диапазон

Имя файла E:\rip-flacmusic.ru\Pink Floyd - Total Eclipse CD4.wav

Пиковый уровень 72.5 %
Качество диапазона 100.0 %
CRC копии 084DC75C
Копирование... OK

Ошибок не произошло


AccurateRip: сводка

Трек 1 точность не определена (достоверность 2) [9D8D599D], AccurateRip вернул [3F54CF5B]
Трек 2 точное извлечение (доверие 2) [A8C706DD]
Трек 3 точное извлечение (доверие 2) [6FFCE35E]
Трек 4 точное извлечение (доверие 2) [228EBE95]
Трек 5 точное извлечение (доверие 2) [1E1A9EE8]
Трек 6 точное извлечение (доверие 2) [FBDF5D50]
Трек 7 точное извлечение (доверие 2) [E79DC958]
Трек 8 точное извлечение (доверие 2) [4D51C330]
Трек 9 точное извлечение (доверие 2) [4073E935]
Трек 10 точное извлечение (доверие 2) [C913C189]
Трек 11 нет в базе данных
Трек 12 нет в базе данных

9 трек(и) скопированы точно
1 трек(и) не удалось проверить на точность
2 трек(и) не содержатся в базе AccurateRip

Некоторые треки не прошли проверку на точность

Конец отчёта

REM GENRE Rock
REM DATE 1993
REM DISCID 3810E014
REM COMMENT "ExactAudioCopy v0.99pb5"
PERFORMER "Pink Floyd"
TITLE "Total Eclipse CD1 flacmusic.ru"
FILE "Pink Floyd - Total Eclipse CD1.flac" WAVE
TRACK 01 AUDIO
TITLE "Arnold Layne"
PERFORMER "Pink Floyd"
INDEX 01 00:00:00
TRACK 02 AUDIO
TITLE "Candy And A Currant Bun"
PERFORMER "Pink Floyd"
INDEX 01 02:56:55
TRACK 03 AUDIO
TITLE "See Emily Play"
PERFORMER "Pink Floyd"
INDEX 01 05:43:32
TRACK 04 AUDIO
TITLE "Flaming"
PERFORMER "Pink Floyd"
INDEX 01 08:36:32
TRACK 05 AUDIO
TITLE "The Scarecrow (Peel Sessions)"
PERFORMER "Pink Floyd"
INDEX 01 11:25:20
TRACK 06 AUDIO
TITLE "The Gnome (Peel Sessions)"
PERFORMER "Pink Floyd"
INDEX 01 13:27:17
TRACK 07 AUDIO
TITLE "Mathilda Mother (Peel Sessions)"
PERFORMER "Pink Floyd"
INDEX 01 15:38:52
TRACK 08 AUDIO
TITLE "Scream Thy Last Scream"
PERFORMER "Pink Floyd"
INDEX 01 19:00:22
TRACK 09 AUDIO
TITLE "Vegetable Man"
PERFORMER "Pink Floyd"
INDEX 01 23:41:12
TRACK 10 AUDIO
TITLE "Apples And Oranges"
PERFORMER "Pink Floyd"
INDEX 01 26:11:60
TRACK 11 AUDIO
TITLE "Pow R. Toc H. (Peel Sessions)"
PERFORMER "Pink Floyd"
INDEX 01 29:18:70
TRACK 12 AUDIO
TITLE "Jugband Blues (Peel Sessions)"
PERFORMER "Pink Floyd"
INDEX 01 32:15:05
TRACK 13 AUDIO
TITLE "Nick's Boogie"
PERFORMER "Pink Floyd"
INDEX 01 36:04:60
TRACK 14 AUDIO
TITLE "It Would Be So Nice"
PERFORMER "Pink Floyd"
INDEX 01 47:52:15
TRACK 15 AUDIO
TITLE "Julia Dream (Peel Sessions)"
PERFORMER "Pink Floyd"
INDEX 01 51:36:20
TRACK 16 AUDIO
TITLE "Let There Be More Light (Peel Sessions)"
PERFORMER "Pink Floyd"
INDEX 01 54:01:20
TRACK 17 AUDIO
TITLE "Murderistic Women (Peel Sessions)"
PERFORMER "Pink Floyd"
INDEX 01 57:41:35
TRACK 18 AUDIO
TITLE "Massed Gadgets Of Hercules (Peel Sessions)"
PERFORMER "Pink Floyd"
INDEX 01 61:32:30
TRACK 19 AUDIO
TITLE "Point Me At The Sky"
PERFORMER "Pink Floyd"
INDEX 01 64:23:55
TRACK 20 AUDIO
TITLE "Baby Blue Shuffle In D Minor (Peel Sessions)"
PERFORMER "Pink Floyd"
INDEX 01 67:57:57

REM GENRE Rock
REM DATE 1993
REM DISCID 9712830B
REM COMMENT "ExactAudioCopy v0.99pb5"
PERFORMER "Pink Floyd"
TITLE "Total Eclipse CD2 flacmusic.ru"
FILE "Pink Floyd - Total Eclipse CD2.flac" WAVE
TRACK 01 AUDIO
TITLE "The Embryo"
PERFORMER "Pink Floyd"
INDEX 01 00:00:00
TRACK 02 AUDIO
TITLE "Green is the Color"
PERFORMER "Pink Floyd"
INDEX 01 03:26:05
TRACK 03 AUDIO
TITLE "Careful with that Axe Eugene"
PERFORMER "Pink Floyd"
INDEX 01 06:54:65
TRACK 04 AUDIO
TITLE "The Narrow Way - Part I"
PERFORMER "Pink Floyd"
INDEX 01 14:09:25
TRACK 05 AUDIO
TITLE "Biding My Time"
PERFORMER "Pink Floyd"
INDEX 01 18:45:70
TRACK 06 AUDIO
TITLE "Oneone/Fingal's Cave"
PERFORMER "Pink Floyd"
INDEX 01 23:52:05
TRACK 07 AUDIO
TITLE "Rain in the Country"
PERFORMER "Pink Floyd"
INDEX 01 32:03:27
TRACK 08 AUDIO
TITLE "The Violence Sequence"
PERFORMER "Pink Floyd"
INDEX 01 39:04:27
TRACK 09 AUDIO
TITLE "If"
PERFORMER "Pink Floyd"
INDEX 01 43:37:12
TRACK 10 AUDIO
TITLE "Cymbaline"
PERFORMER "Pink Floyd"
INDEX 01 48:04:42
TRACK 11 AUDIO
TITLE "Atom Heart Mother"
PERFORMER "Pink Floyd"
INDEX 01 58:54:02

REM GENRE Rock
REM DATE 1993
REM DISCID 6410CB09
REM COMMENT "ExactAudioCopy v0.99pb5"
PERFORMER "Pink Floyd"
TITLE "Total Eclipse CD3 flacmusic.ru"
FILE "Pink Floyd - Total Eclipse CD3.flac" WAVE
TRACK 01 AUDIO
TITLE "Blues"
PERFORMER "Pink Floyd"
INDEX 01 00:00:00
TRACK 02 AUDIO
TITLE "Breathe"
PERFORMER "Pink Floyd"
INDEX 01 05:08:60
TRACK 03 AUDIO
TITLE "On the Run"
PERFORMER "Pink Floyd"
INDEX 01 08:08:07
TRACK 04 AUDIO
TITLE "The Great Gig in the Sky"
PERFORMER "Pink Floyd"
INDEX 01 14:29:55
TRACK 05 AUDIO
TITLE "Money"
PERFORMER "Pink Floyd"
INDEX 01 19:01:17
TRACK 06 AUDIO
TITLE "Brain Damage/Eclipse"
PERFORMER "Pink Floyd"
INDEX 01 20:44:47
TRACK 07 AUDIO
TITLE "Shine on You Crazy Diamond - Part I - V"
PERFORMER "Pink Floyd"
INDEX 01 24:11:17
TRACK 08 AUDIO
TITLE "Raving and Drooling"
PERFORMER "Pink Floyd"
INDEX 01 47:43:37
TRACK 09 AUDIO
TITLE "You've Gotta Be Crazy"
PERFORMER "Pink Floyd"
INDEX 01 58:28:00

REM GENRE Rock
REM DATE 1993
REM DISCID B012300C
REM COMMENT "ExactAudioCopy v0.99pb5"
PERFORMER "Pink Floyd"
TITLE "Total Eclipse CD4 flacmusic.ru"
FILE "Pink Floyd - Total Eclipse CD4.flac" WAVE
TRACK 01 AUDIO
TITLE "Echoes"
PERFORMER "Pink Floyd"
INDEX 01 00:00:00
TRACK 02 AUDIO
TITLE "Pigs on the Wing Parts I & II"
PERFORMER "Pink Floyd"
INDEX 01 21:26:37
TRACK 03 AUDIO
TITLE "Comfortably Numb"
PERFORMER "Pink Floyd"
INDEX 01 25:00:62
TRACK 04 AUDIO
TITLE "When the Tigers Broke Free"
PERFORMER "Pink Floyd"
INDEX 01 27:39:07
TRACK 05 AUDIO
TITLE "Mother"
PERFORMER "Pink Floyd"
INDEX 01 30:34:65
TRACK 06 AUDIO
TITLE "What Shall We Do Now"
PERFORMER "Pink Floyd"
INDEX 01 37:14:20
TRACK 07 AUDIO
TITLE "Bring the Boys Back Home"
PERFORMER "Pink Floyd"
INDEX 01 41:56:57
TRACK 08 AUDIO
TITLE "Outside the Wall"
PERFORMER "Pink Floyd"
INDEX 01 43:43:02
TRACK 09 AUDIO
TITLE "The Hero's Return Parts I & II"
PERFORMER "Pink Floyd"
INDEX 01 47:53:00
TRACK 10 AUDIO
TITLE "Run Like Hell"
PERFORMER "Pink Floyd"
INDEX 01 51:50:15
TRACK 11 AUDIO
TITLE "On the Turning Away"
PERFORMER "Pink Floyd"
INDEX 01 59:14:55
TRACK 12 AUDIO
TITLE "Money"
PERFORMER "Pink Floyd"
INDEX 01 66:03:30
   
Торрент: Зарегистрирован [12 авг 2015, 13:34] Rock Скачать торрент Магнет ссылка
Скачать торрент
[ Размер 18.92 КБ / Просмотров 362 ]
Статус:
Проверен
 
.torrent скачан: 9 раз
Размер: 1.56 ГБ (1 672 175 144 байт)
   Стать Автором раздачи
 
 
Цитата
Аватара пользователя
Раздал: 19.05 ТБ
Скачал: 54.52 ГБ
Ратио: 366.714
Сообщения: 344
Стаж: 7 лет 7 месяцев 23 дня
Откуда: Зеленоград
СообщениеДобавлено: 12 авг 2011, 06:27
А названия альбомов где?
Цитата
Аватара пользователя
Главный редактор
Главный редактор
Я на сайте
Раздал: 32.12 ТБ
Скачал: 2.39 ТБ
Ратио: 13.887
Сообщения: 105854
Стаж: 7 лет 7 месяцев 23 дня
Откуда: Санкт-Петербург
СообщениеДобавлено: 12 авг 2011, 13:03
Shmitt писал(а):

А названия альбомов где?


Этот релиз "Pink Floyd" , изначально выпущен без названия альбомов, диски собраны из концертных выступлений разных лет (1967 - 1993) - Pink Floyd: Total Eclipse - A Retrospective 1967-1993
Цитата
Аватара пользователя
Раздал: 19.05 ТБ
Скачал: 54.52 ГБ
Ратио: 366.714
Сообщения: 344
Стаж: 7 лет 7 месяцев 23 дня
Откуда: Зеленоград
СообщениеДобавлено: 12 авг 2011, 13:40
Так и надо указать, что концертники т.е. Live
Цитата
Аватара пользователя
Администратор
Администратор
Автор темы
Раздал: 24.48 ТБ
Скачал: 388.83 ГБ
Ратио: 145.343
Сообщения: 6108
Стаж: 7 лет 7 месяцев 10 дней
Откуда: Lithuania
СообщениеДобавлено: 12 авг 2011, 21:03
Кому что надо указать в данном разделе, модераторы сами разберутся. (И в разделах программного обеспечения тоже...)
Цитата
Аватара пользователя
Раздал: 5.05 ГБ
Скачал: 866.76 МБ
Ратио: 5.972
Сообщения: 1
Стаж: 3 года 1 месяц 13 дней
Откуда: Lituania
СообщениеДобавлено: 10 авг 2015, 16:36
Koralina писал(а):

Re: (Rock)Pink Floyd - Total Eclipse - A Retrospective 1967-1993 [4CD] (1993), FLAC (image + .cue), lossless

дайте сидов.???
Цитата
Аватара пользователя
Главный редактор
Главный редактор
Я на сайте
Раздал: 32.12 ТБ
Скачал: 2.39 ТБ
Ратио: 13.887
Сообщения: 105854
Стаж: 7 лет 7 месяцев 23 дня
Откуда: Санкт-Петербург
СообщениеДобавлено: 12 авг 2015, 13:36
Раздача обновлена. Перекачайте торрент файл ;)
Цитата

  • Похожие торренты
    Ответы
    Просмотры
    Последнее сообщение

Вернуться в Rock

Кто сейчас на конференции

Сейчас эту тему просматривают: нет зарегистрированных пользователей и гости: 1