Роботы, такие похожие на людей / Discovery: Robosapiens (Джилл Маршалл) [2007 г.] (документальный, познавательный) [DVDRip] (DVO)

 Статистика раздачи 
Размер: 700.38 МБ   |  Зарегистрирован: 09 авг 2011, 18:21   |   .torrent скачан: 0 раз
Сидеров: 0  [ 0 байт/сек ]     Личеров: 3  [ 0 байт/сек ]  
  
Аватара пользователя
Автор темы
Раздал: 815.27 ГБ
Скачал: 8.03 ГБ
Ратио: 101.530
Сообщения: 117
Стаж: 7 лет 1 месяц 17 дней
Откуда: с тонущего сибирского корабля

Роботы, такие похожие на людей / Discovery: Robosapiens


Год выпуска: 2007
Производство: Великобритания
Жанр: документальный, познавательный
Продолжительность: 00:44:17
Перевод: Профессиональный (двухголосый, закадровый)

Режиссер: Джилл Маршалл

Описание: Этот фильм о роботах снят по мотивам нашумевшей научно-популярной книги немецкого фотографа Петера Менцеля и журналиста Фейта Д'Алусио "Robo sapiens. Эволюция нового вида". Писатель-фантаст Артур Кларк прочтя ее, написал: "это самая интересная и в тоже время самая пугающая книга из тех, которые я кагда-либо читал..." Прекрасно иллюстрированная (более 200 моделей), она не может не вызвать интереса у тех, кто интересуется будущим человечества. Действительно, сегодня в мире ученые и инженеры принимают участие в безпрецедентной гонке по созданию робота, наделенного интеллектом. Он будет не только "умным", но и внешне похожим на человека! Так что же нам несет такая "техническая эволюция" - благо или зло?

Источник/Качество: DVDRip
Формат: AVI
Видео кодек: DivX
Аудио кодек: AC3
Видео: 720x448 (1.61:1), 25 fps, DivX Codec 6.7 ~2012 kbps avg, 0.25 bit/pixel
Аудио: 48 kHz, AC3 Dolby Digital, 2/0 (L,R) ch, ~192.00 kbps avg
D:\Мои документы D\Фильмы\Роботы, такие похожие на людей.avi
General
Complete name : D:\Мои документы D\Фильмы\Роботы, такие похожие на людей.avi
Format : AVI
Format/Info : Audio Video Interleave
File size : 700 MiB
Duration : 44mn 17s
Overall bit rate : 2 211 Kbps
Writing application : VirtualDubMod 1.5.4.1 (build 2178/release)
Writing library : VirtualDubMod build 2178/release
Video #0
ID : 0
Format : MPEG-4 Visual
Format settings, BVOP : Yes
Format settings, QPel : No
Format settings, GMC : No warppoints
Format settings, Matrix : Default (H.263)
Muxing mode : Packed bitstream
Codec ID : DX50
Codec ID/Hint : DivX 5
Duration : 44mn 17s
Bit rate : 2 012 Kbps
Width : 720 pixels
Height : 448 pixels
Display aspect ratio : 1.607
Frame rate : 25.000 fps
Resolution : 24 bits
Colorimetry : 4:2:0
Scan type : Progressive
Bits/(Pixel*Frame) : 0.249
Stream size : 637 MiB (91%)
Writing library : DivX 6.7.0 (UTC 2007-09-20)
Audio #1
ID : 1
Format : AC-3
Format/Info : Audio Coding 3
Codec ID : 2000
Duration : 44mn 17s
Bit rate mode : Constant
Bit rate : 192 Kbps
Channel(s) : 2 channels
Channel positions : L R
Sampling rate : 48.0 KHz
Stream size : 60.8 MiB (9%)
Alignment : Split accross interleaves
Interleave, duration : 96 ms (2.40 video frames)
Interleave, preload duration : 96 ms
Language : Russian



   
Торрент: Зарегистрирован [09 авг 2011, 18:21] Скачать торрент Магнет ссылка
Скачать торрент
[ Размер 14.07 КБ / Просмотров 138 ]
Статус:
Проверен
 
.torrent скачан: 0 раз
Размер: 700.38 МБ (734 406 656 байт)
   
 
 
Лучше гипс и кроватка, чем гранит и оградка.
Цитата
  • Похожие торренты
    Ответы
    Просмотры
    Последнее сообщение

Вернуться в Discovery

Кто сейчас на конференции

Сейчас эту тему просматривают: нет зарегистрированных пользователей и гости: 1