Маленький принц / The Little Prince (2015) BDRip [H.264/1080p]

 Статистика раздачи 
Размер: 11.26 ГБ   |  Зарегистрирован: 01 янв 2018, 22:22   |   .torrent скачан: 0 раз
Сидеров: 0  [ 0 байт/сек ]     Личеров: 0  [ 0 байт/сек ]  
  
Аватара пользователя
 
Раздал: 0 байт
Скачал: 0 байт
Ратио: Inf.
Сообщения: 59083
Стаж: 7 лет 8 дней

Маленький принц / The Little Prince (2015) BDRip [H.264/1080p]
«Rediscover one of the most beloved stories of all time»

Производство: Франция, Канада, On Entertainment, Onyx Films, Paramount Animation
Жанр: мультфильм, фэнтези, драма, приключения,

Режиссер: Марк Осборн
Актеры: Рэйчел МакАдамс, Пол Радд, Джеймс Франко, Бенисио Дель Торо, Марион Котийяр, Маккензи Фой, Джефф Бриджес, Венсан Кассель, Пол Джаматти, Рики Джервэй

Описание:
Мир невозможен без фантазии и приключений. По крайней мере в это верит добродушный старик авиатор, по соседству с которым недавно поселилась одна очень педантичная мама со своей прилежной дочкой. Жизнь девочки подчинена строгому учебному плану, в котором время на друзей предусмотрено только следующим летом. Однако этот тщательно выстроенный план трещит по швам, когда в жизнь девочки врывается странный сосед с его невероятными рассказами о Маленьком Принце и далеких звездах. Осталось только починить самолет, и в путь! Так начинается большое путешествие девочки — полное опасностей, волшебства, юмора и настоящей дружбы.



Возраст: 6+ (зрителям, достигшим 6 лет)
Рейтинг MPAA: PG (рекомендуется присутствие родителей)
Дата мировой премьеры: 22 мая 2015
Дата российской премьеры: 24 декабря 2015

Продолжительность: 01:46:34
Качество видео: BDRip
Перевод: Дублированный (iTunes) и любительский двухголосый (Parovoz Production)
Субтитры: Английские PGS и Русские Форсированные (включены по умолчанию) – вшитые, отключаемые
Реклама: Отсутствует

Видео: AVC, 1920x1080 (16:9), 23.976 fps, 9 764 Kbps (0.196 bit/pixel)
Аудио: AC-3, 48.0 KHz, 2 ch, 384 Kbps, CBR - Русский - (Любительский двухголосый)_Автор перевода: Parovoz Production
Аудио: AC-3, 48.0 KHz, 6 ch, 640 Kbps, CBR - Английский
Аудио: TrueHD, 48.0 KHz, 8 ch, VBR - Английский, True HD, Dolby Digital, 7.1
Аудио: AC-3, 48.0 KHz, 6 ch, 384 Kbps, CBR - Русский - (Дубляж - iTunes)_(включен по умолчанию)
Код: выделить все
Формат                                   : Matroska
Версия формата                           : Version 4 / Version 2
Размер файла                             : 11,3 Гбайт
Продолжительность                        : 1 ч. 46 м.
Режим общего битрейта                    : Переменный
Общий поток                              : 15,1 Мбит/сек
Название фильма                          : Маленький принц - The Little Prince (2015)_BDRip 1080p
Дата кодирования                         : UTC 2016-06-19 14:50:47
Программа кодирования                    : mkvmerge v7.6.0 ('Garden of Dreams') 64bit built on Feb  8 2015 13:04:34
Библиотека кодирования                   : libebml v1.3.1 + libmatroska v1.4.2
_STATISTICS_WRITING_APP                  : mkvmerge v7.6.0 ('Garden of Dreams') 64bit built on Feb  8 2015 13:04:34
_STATISTICS_WRITING_DATE_UTC             : 2016-06-19 14:50:47
_STATISTICS_TAGS                         : BPS DURATION NUMBER_OF_FRAMES NUMBER_OF_BYTES
DURATION                                 : 01:46:34.389000000
NUMBER_OF_FRAMES                         : 7673266
NUMBER_OF_BYTES                          : 3093330064

Видео
Идентификатор                            : 1
Формат                                   : AVC
Формат/Информация                        : Advanced Video Codec
Профиль формата                          : [email protected]
Параметр CABAC формата                   : Да
Параметр ReFrames формата                : 4 кадра
Идентификатор кодека                     : V_MPEG4/ISO/AVC
Продолжительность                        : 1 ч. 46 м.
Номинальный битрейт                      : 9764 Кбит/сек
Ширина                                   : 1920 пикселей
Высота                                   : 1080 пикселей
Соотношение сторон                       : 16:9
Режим частоты кадров                     : Постоянный
Частота кадров                           : 23,976 кадра/сек
Цветовое пространство                    : YUV
Субдискретизация насыщенности            : 4:2:0
Битовая глубина                          : 8 бит
Тип развёртки                            : Прогрессивная
Бит/(Пиксели*Кадры)                      : 0.196
Библиотека кодирования                   : x264 core 148 r2638kMod 7599210
Настройки программы                      : cabac=1 / ref=4 / deblock=1:-1:-1 / analyse=0x3:0x133 / me=umh / subme=9 / psy=1 / fade_compensate=0.00 / psy_rd=1.00:0.00 / mixed_ref=1 / me_range=16 / chroma_me=1 / trellis=2 / 8x8dct=1 / cqm=0 / deadzone=21,11 / fast_pskip=1 / chroma_qp_offset=-2 / threads=7 / lookahead_threads=1 / sliced_threads=0 / nr=0 / decimate=1 / interlaced=0 / bluray_compat=0 / constrained_intra=0 / fgo=0 / bframes=3 / b_pyramid=2 / b_adapt=2 / b_bias=0 / direct=3 / weightb=1 / open_gop=0 / weightp=2 / keyint=250 / keyint_min=25 / scenecut=40 / intra_refresh=0 / rc_lookahead=60 / rc=2pass / mbtree=1 / bitrate=9764 / ratetol=1.0 / qcomp=0.60 / qpmin=0 / qpmax=69 / qpstep=4 / cplxblur=20.0 / qblur=0.5 / ip_ratio=1.40 / aq=1:1.00
Язык                                     : French
Default                                  : Да
Forced                                   : Нет
_STATISTICS_WRITING_APP                  : mkvmerge v7.6.0 ('Garden of Dreams') 64bit built on Feb  8 2015 13:04:34
_STATISTICS_WRITING_DATE_UTC             : 2016-06-19 14:50:47
_STATISTICS_TAGS                         : BPS DURATION NUMBER_OF_FRAMES NUMBER_OF_BYTES
DURATION                                 : 01:46:34.353000000
NUMBER_OF_FRAMES                         : 153311
NUMBER_OF_BYTES                          : 7804775906

Аудио #1
Идентификатор                            : 2
Формат                                   : AC-3
Формат/Информация                        : Audio Coding 3
Расширение режима                        : CM (complete main)
Параметр Endianness формата              : Big
Идентификатор кодека                     : A_AC3
Продолжительность                        : 1 ч. 46 м.
Вид битрейта                             : Постоянный
Битрейт                                  : 384 Кбит/сек
Каналы                                   : 2 канала
Расположение каналов                     : Front: L R
Частота                                  : 48,0 КГц
Битовая глубина                          : 16 бит
Метод сжатия                             : С потерями
Размер потока                            : 293 Мбайт (3%)
Заголовок                                : Russian 2.0 [Parovoz Production]
Язык                                     : Russian
Default                                  : Нет
Forced                                   : Нет

Аудио #2
Идентификатор                            : 3
Формат                                   : AC-3
Формат/Информация                        : Audio Coding 3
Расширение режима                        : CM (complete main)
Параметр Endianness формата              : Big
Идентификатор кодека                     : A_AC3
Продолжительность                        : 1 ч. 46 м.
Вид битрейта                             : Постоянный
Битрейт                                  : 640 Кбит/сек
Каналы                                   : 6 каналов
Расположение каналов                     : Front: L C R, Side: L R, LFE
Частота                                  : 48,0 КГц
Битовая глубина                          : 16 бит
Метод сжатия                             : С потерями
Размер потока                            : 488 Мбайт (4%)
Заголовок                                : English AC-3 DD 5.1
Язык                                     : English
Default                                  : Нет
Forced                                   : Нет

Аудио #3
Идентификатор                            : 4
Формат                                   : TrueHD
Идентификатор кодека                     : A_TRUEHD
Продолжительность                        : 1 ч. 46 м.
Вид битрейта                             : Переменный
Максимальный битрейт                     : 6051 Кбит/сек
Каналы                                   : 8 каналов
Расположение каналов                     : Front: L C R, Side: L R, Back: L R, LFE
Частота                                  : 48,0 КГц
Метод сжатия                             : Без потерь
Заголовок                                : English TrueHD.7.1
Язык                                     : English
Default                                  : Нет
Forced                                   : Нет

Аудио #4
Идентификатор                            : 7
Формат                                   : AC-3
Формат/Информация                        : Audio Coding 3
Расширение режима                        : CM (complete main)
Параметр Endianness формата              : Big
Идентификатор кодека                     : A_AC3
Продолжительность                        : 1 ч. 46 м.
Вид битрейта                             : Постоянный
Битрейт                                  : 384 Кбит/сек
Каналы                                   : 6 каналов
Расположение каналов                     : Front: L C R, Side: L R, LFE
Частота                                  : 48,0 КГц
Битовая глубина                          : 16 бит
Метод сжатия                             : С потерями
Размер потока                            : 293 Мбайт (3%)
Язык                                     : Russian
Default                                  : Да
Forced                                   : Нет

Текст #1
Идентификатор                            : 5
Формат                                   : PGS
Режим смешивания                         : zlib
Идентификатор кодека                     : S_HDMV/PGS
Идентификатор кодека/Информация          : Picture based subtitle format used on BDs/HD-DVDs
Язык                                     : English
Default                                  : Нет
Forced                                   : Нет

Текст #2
Идентификатор                            : 6
Формат                                   : UTF-8
Идентификатор кодека                     : S_TEXT/UTF8
Идентификатор кодека/Информация          : UTF-8 Plain Text
Язык                                     : Russian
Default                                  : Да
Forced                                   : Нет

Меню
00:00:00.000                             : en:00:00:00.000
00:06:11.871                             : en:00:06:11.871
00:16:06.966                             : en:00:16:06.966
00:22:35.854                             : en:00:22:35.854
00:32:19.771                             : en:00:32:19.771
00:38:05.366                             : en:00:38:05.366
00:43:55.674                             : en:00:43:55.674
00:49:36.848                             : en:00:49:36.848
00:57:30.864                             : en:00:57:30.864
01:08:33.234                             : en:01:08:33.234
01:14:06.358                             : en:01:14:06.358
01:20:31.743                             : en:01:20:31.743
01:27:21.945                             : en:01:27:21.945
01:39:06.023                             : en:01:39:06.023
01:46:34.137                             : en:01:46:34.137
 

Скриншоты:



Время раздачи: 24/7. До первых 5 скачавших.
   
Торрент: Зарегистрирован [01 янв 2018, 22:22] Зарубежные мультфильмы Скачать торрент Магнет ссылка
Скачать торрент
[ Размер 57.12 КБ / Просмотров 0 ]
Статус:
Проверен
 
.torrent скачан: 0 раз
Размер: 11.26 ГБ (12 084 993 596 байт)
   Стать Автором раздачи
 
 
Цитата
  • Похожие торренты
    Ответы
    Просмотры
    Последнее сообщение

Вернуться в Зарубежные мультфильмы

Кто сейчас на конференции

Сейчас эту тему просматривают: нет зарегистрированных пользователей и гости: 1