Discovery. Машины зла: Древние времена / Discovery. Machines of Malice: Ancient Machines (Шэйм Бэльз / Shyam Balse) [2010 г.] (документальный) [DVDRip] (MVO)

 Статистика раздачи 
Размер: 705.44 МБ   |  Зарегистрирован: 06 авг 2011, 16:13   |   .torrent скачан: 1 раз
Сидеров: 0  [ 0 байт/сек ]     Личеров: 541  [ 0 байт/сек ]  
  
Аватара пользователя
Автор темы
Раздал: 815.27 ГБ
Скачал: 8.03 ГБ
Ратио: 101.530
Сообщения: 117
Стаж: 6 лет 11 месяцев 21 день
Откуда: с тонущего сибирского корабля

Discovery. Машины зла: Древние времена / Discovery. Machines of Malice: Ancient Machines


Год выпуска: 2010
Производство: США, Discovery Channel
Жанр: документальный
Продолжительность: 00:43:32
Перевод: Профессиональный (многолосый, закадровый)

Режиссер: Шэйм Бэльз / Shyam Balsé

Описание: Машины зла - это выставка самых страшных и удивительных изобретений человека. В этой программе из серии "Машины зла" вы увидите ужасные орудия пыток и казни, изобретенные в 19 веке (гильотина, гаррота). В наши дни страшные машины стали более совершенными, был изобретен электрический стул. Историю создания этих приспособлений вы узнаете, посмотрев программу.

Кинопоиск

Источник/Качество: DVDRip
Формат: AVI
Видео кодек: XviD
Аудио кодек: MP3
Видео: XviD, 720x400 1 995 Kbps, 25.000 fps
Аудио: Russian: MP3, 128 kb/s (2 ch) 48.0 KHz
Аудио #2: English: MP3, 128 kb/s (2 ch) 48.0 KHz
D:\Мои документы D\Фильмы\Discovery.Mashini.sla.Drevnie.vremena.2010.XviD.DVDRip.avi
General
Complete name : D:\Мои документы D\Фильмы\Discovery.Mashini.sla.Drevnie.vremena.2010.XviD.DVDRip.avi
Format : AVI
Format/Info : Audio Video Interleave
File size : 705 MiB
Duration : 43mn 32s
Overall bit rate : 2 266 Kbps
Writing application : VirtualDubMod 1.5.10.2 (build 2540/release)
Writing library : VirtualDubMod build 2540/release
Video #0
ID : 0
Format : MPEG-4 Visual
Format profile : [email protected]
Format settings, BVOP : Yes
Format settings, QPel : No
Format settings, GMC : No warppoints
Format settings, Matrix : Default (H.263)
Muxing mode : Packed bitstream
Codec ID : XVID
Codec ID/Hint : XviD
Duration : 43mn 32s
Bit rate : 1 995 Kbps
Width : 720 pixels
Height : 400 pixels
Display aspect ratio : 16:9
Frame rate : 25.000 fps
Resolution : 24 bits
Colorimetry : 4:2:0
Scan type : Progressive
Bits/(Pixel*Frame) : 0.277
Stream size : 621 MiB (88%)
Writing library : XviD 58
Audio #1
ID : 1
Format : MPEG Audio
Format version : Version 1
Format profile : Layer 3
Codec ID : 55
Codec ID/Hint : MP3
Duration : 43mn 31s
Bit rate mode : Constant
Bit rate : 128 Kbps
Channel(s) : 2 channels
Sampling rate : 48.0 KHz
Resolution : 16 bits
Stream size : 39.9 MiB (6%)
Alignment : Aligned on interleaves
Interleave, duration : 40 ms (1.00 video frame)
Interleave, preload duration : 504 ms
Audio #2
ID : 2
Format : MPEG Audio
Format version : Version 1
Format profile : Layer 3
Codec ID : 55
Codec ID/Hint : MP3
Duration : 43mn 31s
Bit rate mode : Constant
Bit rate : 128 Kbps
Channel(s) : 2 channels
Sampling rate : 48.0 KHz
Resolution : 16 bits
Stream size : 39.9 MiB (6%)
Alignment : Aligned on interleaves
Interleave, duration : 40 ms (1.00 video frame)
Interleave, preload duration : 504 ms



   
Торрент: Зарегистрирован [06 авг 2011, 16:13] Скачать торрент Магнет ссылка
Скачать торрент
[ Размер 14.17 КБ / Просмотров 179 ]
Статус:
Проверен
 
.torrent скачан: 1 раз
Размер: 705.44 МБ (739 702 784 байт)
   
 
 
Лучше гипс и кроватка, чем гранит и оградка.
Цитата

Вернуться в Discovery

Кто сейчас на конференции

Сейчас эту тему просматривают: нет зарегистрированных пользователей и гости: 1