Юрий Никулин. Я не трус, но я боюсь! (2017) WEBRip

 Статистика раздачи 
Размер: 749.04 МБ   |  Зарегистрирован: 01 янв 2018, 13:42   |   .torrent скачан: 1 раз
Сидеров: 0  [ 0 байт/сек ]     Личеров: 0  [ 0 байт/сек ]  
  
Аватара пользователя
 
Раздал: 1.85 ТБ
Скачал: 4.79 ГБ
Ратио: 394.720
Сообщения: 136098
Стаж: 1 год 2 месяца 5 дней

Юрий Никулин. Я не трус, но я боюсь! (2017) WEBRip

Производство: Россия , ООО «Телекомпания «Идея», ТВ Центр
Жанр: Документальный, биография

Режиссер: Алексей Марков
Участники: Юрий Стоянов, Леонид Каневский, Максим Никулин, Владимир Шахиджанян, Наталья Варлей, Александр Панкратов-Чёрный, Тереза Дурова.

Описание:
Юрий Никулин практически всегда отказывался от ролей в кино, однако именитые режиссёры разными способами добивались его согласия, поскольку были покорены естественностью актёра. Как застенчивый и неуверенный в себе, нелепый и смешной парнишка, которого не приняли ни в один театральный вуз, осуществил свою мечту и стал всенародно любимым артистом и руководителем цирка?

Релиз от: Gorgona007
Продолжительность: 00:38:58
Качество видео: WEBRip
Язык озвучки: Русский
Субтитры: отсутствуют

Видео: Xvid, 720x400, ~2486 kbps
Аудио: AC3, 2 ch, 192 kbps
Код: Выделить всё
Общее
Полное имя                               : F:\КИНО\Юрий Никулин.Я не трус,но я боюсь!.2017.WEBRip.Files-х.avi
Формат                                   : AVI
Формат/Информация                        : Audio Video Interleave
Размер файла                             : 749 Мбайт
Продолжительность                        : 38 м. 58 с.
Общий поток                              : 2688 Кбит/сек
Программа кодирования                    : VirtualDubMod 1.5.10.3 | [url=http://www.virtualdub-fr.org]www.virtualdub-fr.org[/url] || (build 2550/release)
Библиотека кодирования                   : VirtualDubMod build 2550/release

Видео
Идентификатор                            : 0
Формат                                   : MPEG-4 Visual
Профиль формата                          : Advanced [email protected]
Настройки формата                        : BVOP1 / Custom Matrix
Параметр BVOP формата                    : 1
Параметр QPel формата                    : Нет
Параметр GMC формата                     : Без точки перехода
Параметр матрицы формата                 : Выборочная
Идентификатор кодека                     : XVID
Идентификатор кодека/Подсказка           : XviD
Продолжительность                        : 38 м. 58 с.
Битрейт                                  : 2486 Кбит/сек
Ширина                                   : 720 пикселей
Высота                                   : 400 пикселей
Соотношение сторон                       : 16:9
Частота кадров                           : 25,000 кадров/сек
Цветовое пространство                    : YUV
Субдискретизация насыщенности            : 4:2:0
Битовая глубина                          : 8 бит
Тип развёртки                            : Прогрессивная
Метод сжатия                             : С потерями
Бит/(Пиксели*Кадры)                      : 0.345
Размер потока                            : 693 Мбайт (92%)
Библиотека кодирования                   : XviD 73

Аудио
Идентификатор                            : 1
Формат                                   : AC-3
Формат/Информация                        : Audio Coding 3
Идентификатор кодека                     : 2000
Продолжительность                        : 38 м. 58 с.
Вид битрейта                             : Постоянный
Битрейт                                  : 192 Кбит/сек
Каналы                                   : 2 канала
Расположение каналов                     : Front: L R
Частота                                  : 48,0 КГц
Частота кадров                           : 31,250 кадров/сек (1536 SPF)
Битовая глубина                          : 16 бит
Метод сжатия                             : С потерями
Размер потока                            : 53,5 Мбайт (7%)
Выравнивание                             : Разделение по промежуткам
Продолжительность промежутка             : 40  мс. (1,00 видеокадр)
Время предзагрузки промежутка            : 500  мс.
ServiceKind/String                       : Complete Main
Ю́рий Влади́мирович Нику́лин (18 декабря 1921, Демидов — 21 августа 1997, Москва) — советский и российский артист цирка (клоун), киноактёр, телеведущий, директор Цирка на Цветном бульваре. Участник Великой Отечественной войны. Народный артист СССР (1973). Герой Социалистического Труда (1990).

Скриншоты:




Время раздачи: с 18:00 до 23:00 (до появления первых 3-5 скачавших)
   
Торрент: Зарегистрирован [01 янв 2018, 13:42] Скачать торрент Магнет ссылка
Скачать торрент
[ Размер 15.6 КБ / Просмотров 8 ]
Статус:
Проверен
 
.torrent скачан: 1 раз
Размер: 749.04 МБ (785 424 384 байт)
   Стать Автором раздачи
 
 
Цитата

Вернуться в Личности

Кто сейчас на конференции

Сейчас эту тему просматривают: нет зарегистрированных пользователей и гости: 1