Новогоднее обращение президента России В.В. Путина (2017.12.31) SATRip

 Статистика раздачи 
Размер: 156.8 МБ   |  Зарегистрирован: 31 дек 2017, 22:58   |   .torrent скачан: 0 раз
Сидеров: 0  [ 0 байт/сек ]     Личеров: 0  [ 0 байт/сек ]  
  
Аватара пользователя
 
Раздал: 0 байт
Скачал: 0 байт
Ратио: Inf.
Сообщения: 103047
Стаж: 7 лет 3 месяца 16 дней

Новогоднее обращение президента России В.В. Путина (2017.12.31) SATRip

Телекомпания: Первый канал
Жанр: Документальный

Описание:
Новогоднее обращение Президента Российской Федерации В. В. Путина

Релиз от:
Продолжительность: ~ 00:08:50
Качество видео: SATRip
Субтитры: Отсутствуют

Видео: MPEG4, XviD, 720x464 (1.552), 25.000 fps, 2 340 Kbps (0.280 bit/pixel)
Аудио: MP3, 48.0 KHz, 2 ch, 128 Kbps, CBR
Код: выделить все Общее
Полное имя                               : D:\[1]\Путин\Новогоднее обращение президента России В.В. Путина (2017.12.31).avi
Формат                                   : AVI
Формат/Информация                        : Audio Video Interleave
Размер файла                             : 157 Мбайт
Продолжительность                        : 8 м. 50 с.
Общий поток                              : 2478 Кбит/сек
Программа кодирования                    : VirtualDubMod 1.5.10.3 | www.virtualdub-fr.org || (build 2550/release)
Библиотека кодирования                   : VirtualDubMod build 2550/release

Видео
Идентификатор                            : 0
Формат                                   : MPEG-4 Visual
Профиль формата                          : Advanced [email protected]
Параметр BVOP формата                    : 2
Параметр QPel формата                    : Нет
Параметр GMC формата                     : Без точки перехода
Параметр матрицы формата                 : Default (H.263)
Идентификатор кодека                     : XVID
Идентификатор кодека/Подсказка           : XviD
Продолжительность                        : 8 м. 50 с.
Битрейт                                  : 2340 Кбит/сек
Ширина                                   : 720 пикселей
Высота                                   : 464 пикселя
Соотношение сторон                       : 16:10
Частота кадров                           : 25,000 кадров/сек
Цветовое пространство                    : YUV
Субдискретизация насыщенности            : 4:2:0
Битовая глубина                          : 8 бит
Тип развёртки                            : Прогрессивная
Метод сжатия                             : С потерями
Бит/(Пиксели*Кадры)                      : 0.280
Размер потока                            : 148 Мбайт (94%)
Библиотека кодирования                   : XviD 1.2.1 (UTC 2008-12-04)

Аудио
Идентификатор                            : 1
Формат                                   : MPEG Audio
Версия формата                           : Version 1
Профиль формата                          : Layer 3
Режим                                    : Joint stereo
Расширение режима                        : MS Stereo
Идентификатор кодека                     : 55
Идентификатор кодека/Подсказка           : MP3
Продолжительность                        : 8 м. 50 с.
Вид битрейта                             : Постоянный
Битрейт                                  : 128 Кбит/сек
Каналы                                   : 2 канала
Частота                                  : 48,0 КГц
Метод сжатия                             : С потерями
Размер потока                            : 8,10 Мбайт (5%)
Выравнивание                             : Соединение по промежуткам
Продолжительность промежутка             : 40  мс. (1,00 видеокадр)
Время предзагрузки промежутка            : 504  мс.
Библиотека кодирования                   : LAME3.99r
Настройки программы                      : -m j -V 4 -q 9 -lowpass 17 -b 128
 
Скриншоты:

   
Торрент: Зарегистрирован [31 дек 2017, 22:58] Скачать торрент Магнет ссылка
Скачать торрент
[ Размер 13.19 КБ / Просмотров 13 ]
Статус:
Проверен
 
.torrent скачан: 0 раз
Размер: 156.8 МБ (164 413 440 байт)
   Стать Автором раздачи
 
 
Цитата
  • Похожие торренты
    Ответы
    Просмотры
    Последнее сообщение

Вернуться в Личности

Кто сейчас на конференции

Сейчас эту тему просматривают: нет зарегистрированных пользователей и гости: 1