Gary Clark Jr. - Paléo Festival 2015 [2016, Blues rock/Soul/R&B/Blues/Hard rock/Rock'n'roll, HDTV, 720p]

 Статистика раздачи 
Размер: 4.82 ГБ   |  Зарегистрирован: 14 фев 2018, 21:02   |   .torrent скачан: 0 раз
Сидеров: 0  [ 0 байт/сек ]     Личеров: 1  [ 0 байт/сек ]  
  
Аватара пользователя
Главный редактор
Главный редактор
 
Раздал: 53.87 ТБ
Скачал: 2.62 ТБ
Ратио: 21.019
Сообщения: 187575
Стаж: 8 лет 1 месяц 18 дней
Откуда: Санкт-Петербург

Gary Clark Jr. - Paléo Festival 2015
Жанр: Blues rock/Soul/R&B/Blues/Hard rock/Rock'n'roll
Продолжительность: 00:58:36
Год выпуска: 2016
Описание: Выступление американского гитариста и актера Гарри Кларка Младшего (Gary Clark Jr.) на ежегодном музыкальном фестивале Paléo Festival в швейцарском Ньоне jule 23, 2015
Доп. информация: Собственная запись со спутникового канала RTS Deux june 25, 2016
Треклист: Bright Lights
Ain't Messin 'Round
When My Train Pulls In
Cold Blooded
Our Love
Travis County
Numb
Next Door Neighbor Blues
Catfish Blues
Don't Owe You a Thang
Качество: HDTV
Разрешение видео/развертка: 720p
Контейнер: TS
Видео кодек: H.264
Аудио кодек: AC3
Видео: Mpeg-4 AVC, 1280x720, 10300 kbps, 50 fps Progressive
Аудио: AC3, 448 kbps, 48 kHz, 5.1 ch
Аудио 2: MP2, 192 kbps, 48 kHz, stereo
Аудио 3: MP2, 192 kbps, 48 kHz, stereo
Код: Выделить всё
General
ID                                       : 1 (0x1)
Complete name                            : E:\Downloads\Gary Clark Jr. - Paleo Festival 2015.ts
Format                                   : MPEG-TS
File size                                : 4.82 GiB
Duration                                 : 58mn 36s
Overall bit rate mode                    : Variable
Overall bit rate                         : 11.8 Mbps
Video
ID                                       : 542 (0x21E)
Menu ID                                  : 17204 (0x4334)
Format                                   : AVC
Format/Info                              : Advanced Video Codec
Format profile                           : High@L4
Format settings, CABAC                   : Yes
Format settings, ReFrames                : 3 frames
Format settings, GOP                     : M=2, N=24
Codec ID                                 : 27
Duration                                 : 58mn 36s
Bit rate                                 : 10.3 Mbps
Width                                    : 1 280 pixels
Height                                   : 720 pixels
Display aspect ratio                     : 16:9
Frame rate                               : 50.000 fps
Standard                                 : Component
Color space                              : YUV
Chroma subsampling                       : 4:2:0
Bit depth                                : 8 bits
Scan type                                : Progressive
Bits/(Pixel*Frame)                       : 0.225
Stream size                              : 4.24 GiB (88%)
Color range                              : Limited
Color primaries                          : BT.709
Transfer characteristics                 : BT.709
Matrix coefficients                      : BT.709
Audio #1
ID                                       : 543 (0x21F)
Menu ID                                  : 17204 (0x4334)
Format                                   : AC-3
Format/Info                              : Audio Coding 3
Mode extension                           : CM (complete main)
Format settings, Endianness              : Big
Codec ID                                 : 6
Duration                                 : 58mn 36s
Bit rate mode                            : Constant
Bit rate                                 : 448 Kbps
Channel(s)                               : 6 channels
Channel positions                        : Front: L C R, Side: L R, LFE
Sampling rate                            : 48.0 KHz
Compression mode                         : Lossy
Delay relative to video                  : -20ms
Stream size                              : 188 MiB (4%)
Language                                 : French
Audio #2
ID                                       : 544 (0x220)
Menu ID                                  : 17204 (0x4334)
Format                                   : MPEG Audio
Format version                           : Version 1
Format profile                           : Layer 2
Mode                                     : Joint stereo
Mode extension                           : Intensity Stereo + MS Stereo
Codec ID                                 : 3
Duration                                 : 58mn 36s
Bit rate mode                            : Constant
Bit rate                                 : 192 Kbps
Channel(s)                               : 2 channels
Sampling rate                            : 48.0 KHz
Compression mode                         : Lossy
Delay relative to video                  : -20ms
Stream size                              : 80.5 MiB (2%)
Language                                 : French
Audio #3
ID                                       : 545 (0x221)
Menu ID                                  : 17204 (0x4334)
Format                                   : MPEG Audio
Format version                           : Version 1
Format profile                           : Layer 2
Mode                                     : Joint stereo
Mode extension                           : Intensity Stereo + MS Stereo
Codec ID                                 : 3
Duration                                 : 58mn 36s
Bit rate mode                            : Constant
Bit rate                                 : 192 Kbps
Channel(s)                               : 2 channels
Sampling rate                            : 48.0 KHz
Compression mode                         : Lossy
Delay relative to video                  : -20ms
Stream size                              : 80.5 MiB (2%)
Language                                 : English
Text #1
ID                                       : 546 (0x222)-100
Menu ID                                  : 17204 (0x4334)
Format                                   : Teletext
Language                                 : French
Text #2
ID                                       : 546 (0x222)-777
Menu ID                                  : 17204 (0x4334)
Format                                   : Teletext Subtitle
Language                                 : French
Menu
ID                                       : 541 (0x21D)
Menu ID                                  : 17204 (0x4334)
Duration                                 : 58mn 36s
List                                     : 542 (0x21E) (AVC) / 543 (0x21F) (AC-3, French) / 544 (0x220) (MPEG Audio, French) / 545 (0x221) (MPEG Audio, English) / 546 (0x222) ()
Language                                 :  / French / French / English
Не забывайте говорить Спасибо. Не уходите с раздачи!   
Торрент: Зарегистрирован [14 фев 2018, 21:02] Для скачивания .torrent
необходима регистрация
Или скачать с помощью
MediaGet
Статус:
Проверен
 
.torrent скачан: 0 раз
Хэш: 8ca3973c0cf6cdada717ab2d3c162bcb6b93d1bd
Размер: 4.82 ГБ (5 172 471 636 байт)
   Стать Автором раздачи
   
Цитата

Вернуться в Джаз и Блюз

Кто сейчас на конференции

Сейчас эту тему просматривают: нет зарегистрированных пользователей и гости: 1