Tedeschi Trucks Band • Infinity Hall Live 2015 [2016, Rock, blues rock, blues, soul, HDTV 1080i]

 Статистика раздачи 
Размер: 3.6 ГБ   |  Зарегистрирован: 14 фев 2018, 20:48   |   .torrent скачан: 1220 раз
Сидеров: 3  [ 0 байт/сек ]     Личеров: 1  [ 0 байт/сек ]  
  
Аватара пользователя
Главный редактор
Главный редактор
 
Раздал: 33.49 ТБ
Скачал: 2.39 ТБ
Ратио: 14.460
Сообщения: 113061
Стаж: 7 лет 7 месяцев 30 дней
Откуда: Санкт-Петербург





Жанр: Rock, blues rock, blues, soul
Продолжительность: 00:56:05
Запись: April 16, 2015
Трансляция: January 24, 2016
Качество: HDTV 1080i
Контейнер: TS
Видео кодек: MPEG2
Аудио кодек: AC3
Видео: MPEG2 Video 1920x1080 29.97fps 8 345 Kbps
Аудио: Dolby AC3 48000Hz stereo 384kbps
Derek Trucks - guitar
Susan Tedeschi - vocals, guitar
Kofi Burbridge - keyboards, flute
Tim LeFebvre - bass
Tyler Greenwell - drums, percussion
Mark Rivers - vocals
Mike Mattison - vocals
Kebbi Williams - saxophone
Maurice Brown - trumpet
Saunders Sermons - trombone, vocals
01 intro/interview
02 I've Got A Feeling
03 Made Up Mind
04 Do I Look Worried
05 There’s a Break in the Road
06 I Pity the Fool
07 Midnight in Harlem
08 Angel From Montgomery / Sugaree
09 Get What You Deserve
10 closing credits
Код: Выделить всё
General
ID                             : 1 (0x1)
Complete name                  : M:\Tedeschi Trucks Band - Infinity Hall Live 2015.ts
Format                         : MPEG-TS
File size                      : 3.60 GiB
Duration                       : 56mn 5s
Overall bit rate mode          : Variable
Overall bit rate               : 9 187 Kbps
Video
ID                             : 224 (0xE0)
Menu ID                        : 1 (0x1)
Format                         : MPEG Video
Format version                 : Version 2
Format profile                 : [email protected]
Format settings, BVOP          : Yes
Format settings, Matrix        : Custom
Format settings, GOP           : Variable
Format settings, picture struc : Frame
Codec ID                       : 2
Duration                       : 56mn 4s
Bit rate mode                  : Variable
Bit rate                       : 8 345 Kbps
Maximum bit rate               : 80.0 Mbps
Width                          : 1 920 pixels
Height                         : 1 080 pixels
Display aspect ratio           : 16:9
Active Format Description      : Full frame 16:9 image
Frame rate                     : 29.970 fps
Color space                    : YUV
Chroma subsampling             : 4:2:0
Bit depth                      : 8 bits
Scan type                      : Interlaced
Scan order                     : Top Field First
Compression mode               : Lossy
Bits/(Pixel*Frame)             : 0.134
Time code of first frame       : 00:00:00;00
Time code source               : Group of pictures header
GOP, Open/Closed               : Open
GOP, Open/Closed of first fram : Closed
Stream size                    : 3.27 GiB (91%)
Color primaries                : BT.709
Transfer characteristics       : BT.709
Matrix coefficients            : BT.709
Audio
ID                             : 128 (0x80)
Menu ID                        : 1 (0x1)
Format                         : AC-3
Format/Info                    : Audio Coding 3
Mode extension                 : CM (complete main)
Format settings, Endianness    : Big
Codec ID                       : 129
Duration                       : 56mn 4s
Bit rate mode                  : Constant
Bit rate                       : 384 Kbps
Channel(s)                     : 2 channels
Channel positions              : Front: L R
Sampling rate                  : 48.0 KHz
Compression mode               : Lossy
Delay relative to video        : 23ms
Stream size                    : 154 MiB (4%)
Language                       : English
   
Торрент: Зарегистрирован [14 фев 2018, 20:48] Скачать торрент Магнет ссылка
Скачать торрент
[ Размер 18.47 КБ / Просмотров 1 ]
Статус:
Проверен
 
.torrent скачан: 1220 раз
Размер: 3.6 ГБ (3 864 559 772 байт)
   Стать Автором раздачи
 
 
Цитата
  • Похожие торренты
    Ответы
    Просмотры
    Последнее сообщение

Вернуться в Джаз и Блюз

Кто сейчас на конференции

Сейчас эту тему просматривают: нет зарегистрированных пользователей и гости: 1