Tedeschi Trucks Band • Austin City Limits [2016, Rock, blues rock, blues, soul, HDTV 1080i]

 Статистика раздачи 
Размер: 3.96 ГБ   |  Зарегистрирован: 14 фев 2018, 20:29   |   .torrent скачан: 1 раз
Сидеров: 1  [ 0 байт/сек ]     Личеров: 0  [ 0 байт/сек ]  
  
Аватара пользователя
Главный редактор
Главный редактор
 
Раздал: 37.86 ТБ
Скачал: 2.39 ТБ
Ратио: 16.248
Сообщения: 121881
Стаж: 7 лет 8 месяцев 25 дней
Откуда: Санкт-Петербург


Tedeschi Trucks Band



Жанр: Rock, blues rock, blues, soul
Продолжительность: 00:52:41
Запись: 2015 Dec 14
Трансляция: 2016 Feb 13
Качество: HDTV 1080i
Контейнер: MKV
Видео кодек: MPEG2
Аудио кодек: AC3
Видео: MPEG2 Video 1920x1080 29.97fps 10.1 Mbps
Аудио: Dolby AC3 48000Hz 6ch 448kbps
01. Don't Know What It Means
02. The Letter
03. Bird on a Wire
04. Anyhow
05. Let Me Get By
06. I Want More
07. Midnight in Harlem
08. Interview (with Susan and Derek)
09. Credits
Код: Выделить всё
General
Unique ID                      : 215696082590287046389213890974317146624 (0xA2458DEF6FD2165AB6B056AF4389F200)
Complete name                  : J:\Tedeschi Trucks Band - Austin City Limits 2015.mkv
Format                         : Matroska
Format version                 : Version 4 / Version 2
File size                      : 3.96 GiB
Duration                       : 52mn 40s
Overall bit rate mode          : Variable
Overall bit rate               : 10.8 Mbps
Encoded date                   : UTC 2016-02-20 08:45:18
Writing application            : mkvmerge v8.4.0 ('A better way to fly') 64bit
Writing library                : libebml v1.3.1 + libmatroska v1.4.2
Video
ID                             : 1
Format                         : MPEG Video
Format version                 : Version 2
Format profile                 : [email protected]
Format settings, BVOP          : Yes
Format settings, Matrix        : Custom
Format settings, GOP           : M=3, N=15
Format settings, picture struc : Frame
Codec ID                       : V_MPEG2
Codec ID/Info                  : MPEG 1 or 2 Video
Duration                       : 52mn 40s
Bit rate mode                  : Variable
Bit rate                       : 10.1 Mbps
Maximum bit rate               : 25.0 Mbps
Width                          : 1 920 pixels
Height                         : 1 080 pixels
Display aspect ratio           : 16:9
Frame rate mode                : Constant
Frame rate                     : 29.970 fps
Standard                       : Component
Color space                    : YUV
Chroma subsampling             : 4:2:0
Bit depth                      : 8 bits
Scan type                      : Interlaced
Scan order                     : Top Field First
Compression mode               : Lossy
Bits/(Pixel*Frame)             : 0.163
Time code of first frame       : 00:00:00;00
Time code source               : Group of pictures header
GOP, Open/Closed               : Closed
Stream size                    : 3.72 GiB (94%)
Default                        : Yes
Forced                         : No
Color primaries                : BT.709
Transfer characteristics       : BT.709
Matrix coefficients            : BT.709
Audio
ID                             : 2
Format                         : AC-3
Format/Info                    : Audio Coding 3
Mode extension                 : CM (complete main)
Format settings, Endianness    : Big
Codec ID                       : A_AC3
Duration                       : 52mn 40s
Bit rate mode                  : Constant
Bit rate                       : 448 Kbps
Channel(s)                     : 6 channels
Channel positions              : Front: L C R, Side: L R, LFE
Sampling rate                  : 48.0 KHz
Compression mode               : Lossy
Delay relative to video        : 13ms
Stream size                    : 169 MiB (4%)
Default                        : Yes
Forced                         : No
   
Торрент: Зарегистрирован [14 фев 2018, 20:29] Скачать торрент Магнет ссылка
Скачать торрент
[ Размер 20.35 КБ / Просмотров 1 ]
Статус:
Проверен
 
.torrent скачан: 1 раз
Размер: 3.96 ГБ (4 257 290 395 байт)
   Стать Автором раздачи
 
 
Цитата
  • Похожие торренты
    Ответы
    Просмотры
    Последнее сообщение

Вернуться в Джаз и Блюз

Кто сейчас на конференции

Сейчас эту тему просматривают: нет зарегистрированных пользователей и гости: 1