Blues Pills. Gurtenfestival 2015 [2016, Hard rock/Blues rock/Psychedelic rock, HDTV 720p]

 Статистика раздачи 
Размер: 5.32 ГБ   |  Зарегистрирован: 14 фев 2018, 19:05   |   .torrent скачан: 0 раз
Сидеров: 5  [ 0 байт/сек ]     Личеров: 1  [ 0 байт/сек ]  
  
Аватара пользователя
Главный редактор
Главный редактор
 
Раздал: 53.87 ТБ
Скачал: 2.62 ТБ
Ратио: 21.019
Сообщения: 189686
Стаж: 8 лет 1 месяц 21 день
Откуда: Санкт-Петербург

Blues Pills. Gurtenfestival 2015
Жанр: Hard rock/Blues rock/Psychedelic rock
Продолжительность: 01:04:44
Год выпуска: 2016
Описание: Выступление шведского rock бэнда Blues Pills на музыкальном фестивале Gurtenfestival в швейцарском Берне 2015 jul19
Доп. информация: Собственная запись со спутникового канала SRF Zwei 2016 mar17
Треклист: High Class Woman
Ain't No Change
Astralplane
Dig In
Bliss
No Hope Left for Me
The Time Is Now
Elements and Things
Black Smoke
Little Sun
Devil Man
Качество: HDTV 720p
Контейнер: TS
Видео кодек: H.264
Аудио кодек: AC3
Видео: Mpeg4 AVC, 1280x720, 10300 kbps, 50 fps Progressive
Аудио: AC3, 448 kbps, 48 kHz, 5.1 ch
Аудио 2: MP2, 192 kbps, 48 kHz, stereo
Аудио 3: MP2, 192 kbps, 48 kHz, stereo
Код: Выделить всё
General
ID                                       : 1 (0x1)
Complete name                            : E:\Downloads\Blues Pills. Gurtenfestival 2015.ts
Format                                   : MPEG-TS
File size                                : 5.32 GiB
Duration                                 : 1h 4mn
Overall bit rate mode                    : Variable
Overall bit rate                         : 11.8 Mbps
Video
ID                                       : 512 (0x200)
Menu ID                                  : 17202 (0x4332)
Format                                   : AVC
Format/Info                              : Advanced Video Codec
Format profile                           : High@L4
Format settings, CABAC                   : Yes
Format settings, ReFrames                : 3 frames
Format settings, GOP                     : M=2, N=24
Codec ID                                 : 27
Duration                                 : 1h 4mn
Bit rate                                 : 10.3 Mbps
Width                                    : 1 280 pixels
Height                                   : 720 pixels
Display aspect ratio                     : 16:9
Frame rate                               : 50.000 fps
Standard                                 : Component
Color space                              : YUV
Chroma subsampling                       : 4:2:0
Bit depth                                : 8 bits
Scan type                                : Progressive
Bits/(Pixel*Frame)                       : 0.225
Stream size                              : 4.68 GiB (88%)
Color range                              : Limited
Color primaries                          : BT.709
Transfer characteristics                 : BT.709
Matrix coefficients                      : BT.709
Audio #1
ID                                       : 513 (0x201)
Menu ID                                  : 17202 (0x4332)
Format                                   : AC-3
Format/Info                              : Audio Coding 3
Mode extension                           : CM (complete main)
Format settings, Endianness              : Big
Codec ID                                 : 6
Duration                                 : 1h 4mn
Bit rate mode                            : Constant
Bit rate                                 : 448 Kbps
Channel(s)                               : 6 channels
Channel positions                        : Front: L C R, Side: L R, LFE
Sampling rate                            : 48.0 KHz
Compression mode                         : Lossy
Stream size                              : 207 MiB (4%)
Language                                 : German
Audio #2
ID                                       : 514 (0x202)
Menu ID                                  : 17202 (0x4332)
Format                                   : MPEG Audio
Format version                           : Version 1
Format profile                           : Layer 2
Mode                                     : Joint stereo
Mode extension                           : Intensity Stereo + MS Stereo
Codec ID                                 : 3
Duration                                 : 1h 4mn
Bit rate mode                            : Constant
Bit rate                                 : 192 Kbps
Channel(s)                               : 2 channels
Sampling rate                            : 48.0 KHz
Compression mode                         : Lossy
Stream size                              : 88.9 MiB (2%)
Language                                 : German
Audio #3
ID                                       : 515 (0x203)
Menu ID                                  : 17202 (0x4332)
Format                                   : MPEG Audio
Format version                           : Version 1
Format profile                           : Layer 2
Mode                                     : Joint stereo
Mode extension                           : Intensity Stereo + MS Stereo
Codec ID                                 : 3
Duration                                 : 1h 4mn
Bit rate mode                            : Constant
Bit rate                                 : 192 Kbps
Channel(s)                               : 2 channels
Sampling rate                            : 48.0 KHz
Compression mode                         : Lossy
Stream size                              : 88.9 MiB (2%)
Language                                 : English
Text #1
ID                                       : 516 (0x204)-100
Menu ID                                  : 17202 (0x4332)
Format                                   : Teletext
Language                                 : German
Text #2
ID                                       : 516 (0x204)-777
Menu ID                                  : 17202 (0x4332)
Format                                   : Teletext Subtitle
Language                                 : German
Menu
ID                                       : 511 (0x1FF)
Menu ID                                  : 17202 (0x4332)
Duration                                 : 1h 4mn
List                                     : 512 (0x200) (AVC) / 513 (0x201) (AC-3, German) / 514 (0x202) (MPEG Audio, German) / 515 (0x203) (MPEG Audio, English) / 516 (0x204) ()
Language                                 :  / German / German / English
Не забывайте говорить Спасибо. Не уходите с раздачи!   
Торрент: Зарегистрирован [14 фев 2018, 19:05] Для скачивания .torrent
необходима регистрация
Или скачать с помощью
MediaGet
Статус:
Проверен
 
.torrent скачан: 0 раз
Хэш: b4bfb308c183c5c01a6da3c2caea90cbaf6e8635
Размер: 5.32 ГБ (5 715 033 056 байт)
   Стать Автором раздачи
   
Цитата
  • Похожие торренты
    Ответы
    Просмотры
    Последнее сообщение

Вернуться в Джаз и Блюз

Кто сейчас на конференции

Сейчас эту тему просматривают: нет зарегистрированных пользователей и гости: 1