Волшебная лампа Алладина (Ирена Ларсен) [2016, музыкальная сказка, WEB-DLRip] Калининградская областная филармония им. Е.Ф. Светланова

 Статистика раздачи 
Размер: 1.09 ГБ   |  Зарегистрирован: 13 фев 2018, 20:09   |   .torrent скачан: 0 раз
Сидеров: 4  [ 0 байт/сек ]     Личеров: 12  [ 0 байт/сек ]  
  
Аватара пользователя
 
Раздал: 3.16 ТБ
Скачал: 38.27 ГБ
Ратио: 84.648
Сообщения: 192159
Стаж: 1 год 7 месяцев 1 день

Волшебная лампа Алладина
Название театра: Калининградская областная филармония им. Е.Ф. Светланова.
Год выпуска: 2016.
Жанр: музыкальная сказка.
Продолжительность: 01:14:26.
Режиссер: Ирена Ларсен.
Действующие лица и исполнители:
Джинн - Максим Кузнецов,
Аладдин - Александр Дудницкий,
Прнцесса Будур - Виктория Бобкова,
Магрибский Колдун - Денис Гринцевич,
Рассказчик, Мать Аладдина - Ирена Ларсен,
Визирь - Кирилл Круглов,
Султан - Константин Кириллов,
Дети во дворце - Мария Ушакова, Ян-Оливер Ларсен, Георгий Бобков,
Танцовщицы во дворце - Клавдия и Зинаида Гавриловы, Мария Зырянова, Светлана Полевая,
Девушка с питоном - Ксения Стародубцева.
Описание:
«Волшебная лампа Аладдина» - это веселое и красочное музыкальное представление, увлекательная история, в основе которой – знаменитые арабские сказки. Юных зрителей ждет встреча с умным и смелым Аладдином, посмевшим влюбиться в прекрасную, но капризную царевну Будур. С добрым джинном, живущим в старой медной лампе, и с коварным злым волшебником, старающимся помешать счастью влюбленных...
Дополнительная информация:
Страна: Россия .
Постановщик танцев: Константин Кириллов.
Музыкальная группа:
Фортепиано
- Ольга Матвеева,
Арфа - Полина Гайчук,
Кларнет - Павел Ермолаев.

Релиз
Рип sharky.

Качество видео:...WEB-DLRip
Формат:.................AVI
Видео:..704x400 (1.76:1), 25 fps, XviD build 47 ~1955 kbps avg, 0.28 bit/pixel
Аудио:..44.100 kHz, MPEG Layer 3, 2 ch, ~128.00 kbps avg
General
Complete name : Volshebnaya.lampa.Alladina_Kaliningradskaya.OF.im.E.Svetlanova.2016.XviD.WEB-DLRip.fenixclub.avi
Format : AVI
Format/Info : Audio Video Interleave
File size : 1.09 GiB
Duration : 1h 14mn
Overall bit rate : 2 093 Kbps
Writing application : VirtualDubMod 1.5.10.2 (build 2540/release)
Writing library : VirtualDubMod build 2540/release
Video
ID : 0
Format : MPEG-4 Visual
Format profile : Advanced Simple@L5
Format settings, BVOP : 1
Format settings, QPel : No
Format settings, GMC : No warppoints
Format settings, Matrix : Default (H.263)
Codec ID : XVID
Codec ID/Hint : XviD
Duration : 1h 14mn
Bit rate : 1 956 Kbps
Width : 704 pixels
Height : 400 pixels
Display aspect ratio : 16:9
Frame rate : 25.000 fps
Color space : YUV
Chroma subsampling : 4:2:0
Bit depth : 8 bits
Scan type : Progressive
Compression mode : Lossy
Bits/(Pixel*Frame) : 0.278
Stream size : 1.02 GiB (93%)
Writing library : XviD 1.2.0.dev47 (UTC 2006-11-01)
Audio
ID : 1
Format : MPEG Audio
Format version : Version 1
Format profile : Layer 3
Codec ID : 55
Codec ID/Hint : MP3
Duration : 1h 14mn
Bit rate mode : Constant
Bit rate : 128 Kbps
Channel(s) : 2 channels
Sampling rate : 44.1 KHz
Compression mode : Lossy
Stream size : 68.1 MiB (6%)
Alignment : Split accross interleaves
Interleave, duration : 40 ms (1.00 video frame)
Interleave, preload duratio : 500 ms
Writing library : LAME3.97
Encoding settings : -m s -V 4 -q 2 -lowpass 17 -b 128

Не забывайте говорить Спасибо. Не уходите с раздачи!   
Торрент: Зарегистрирован [13 фев 2018, 20:09] Для скачивания .torrent
необходима регистрация
Или скачать с помощью
MediaGet
Статус:
Проверен
 
.torrent скачан: 0 раз
Размер: 1.09 ГБ (1 168 713 728 байт)
   Стать Автором раздачи
   
Цитата

Вернуться в Спектакли и театральные постановки

Кто сейчас на конференции

Сейчас эту тему просматривают: нет зарегистрированных пользователей и гости: 1