Заговор (Светлана Аннапольская) [1971, драма, экранизация, фильм-спектакль, TVRip]

 Статистика раздачи 
Размер: 2.18 ГБ   |  Зарегистрирован: 13 фев 2018, 18:43   |   .torrent скачан: 2 раз
Сидеров: 16  [ 0 байт/сек ]     Личеров: 9  [ 0 байт/сек ]  
  
Аватара пользователя
 
Раздал: 3.59 ТБ
Скачал: 100.65 ГБ
Ратио: 36.572
Сообщения: 200475
Стаж: 1 год 8 месяцев 22 дня

Заговор
Год выпуска: 1971.
Жанр: драма, экранизация, фильм-спектакль.
Продолжительность: 02:38:31.
Режиссер: Светлана Аннапольская.
В ролях:
Президент Лимен - народный артист СССР Павел Массальский,
Кейси - Валентин Гафт,
Кларк - Григорий Аннапольский,
Тодд - народный артист РСФСР Владимир Муравьев,
Эстер - народная артистка РСФСР Ирина Гошева,
Корвин - заслуженный артист РСФСР Галикс Колчицкий,
Гендерсон - заслуженный артист РСФСР Юрий Пузырев,
Джирард - Вячеслав Степанов,
Холбрук - Ирина Мирошниченко,
Мардж - народная артистка РСФСР Маргарита Юрьева,
Скотт - народный артист Литовской ССР Лев Иванов,
Пренсис - народный артист РСФСР Юрий Леонидов,
Бродерик - Сергей Сафонов,
Консул - Владимир Привальцев,
Хаф - Константин Градополов.
Описание:
По мотивам романа американских журналистов Ф.Нибеля и Ч.Бейли "Семь дней в мае".
О вымышленных событиях, которые могли бы произойти в 1974 году в США. Высшие чины Пентагона готовят заговор против Президента Лимена с целью захвата власти. Об этом становится известно сторонникам президента, которые намечают контрмеры. Но спасти Лимена все же не удается...

Доп. информация:
Страна: СССР .
Выпущено: Главная редакция литературно-драматических программ ЦТ.
Авторы: Флетчер Нибел, Чарльз Бейли.
Авторы сценария: Александр Рохлин, Анатолий Шайкевич.
Оператор: Сергей Журавлёв.
Композитор: Игорь Галицкий.

Релиз

Качество: TVRip
Формат: AVI
Видео: 704x464 (1.52:1), 25 fps, XviD MPEG-4 ~1831 kbps avg, 0.22 bit/pixel
Аудио: 48 kHz, MPEG Layer 3, 2 ch, ~128.00 kbps avg
General
Complete name : Zagovor.1971.XviD.SATRip.fenixclub.avi
Format : AVI
Format/Info : Audio Video Interleave
Format profile : OpenDML
File size : 2.18 GiB
Duration : 2h 38mn
Overall bit rate : 1 966 Kbps
Writing application : VirtualDubModRus 1.5.10.2 (build 2542/release)
Writing library : VirtualDubMod build 2542/release
Video
ID : 0
Format : MPEG-4 Visual
Format profile : Advanced Simple@L5
Format settings, BVOP : 2
Format settings, QPel : No
Format settings, GMC : No warppoints
Format settings, Matrix : Default (MPEG)
Codec ID : XVID
Codec ID/Hint : XviD
Duration : 2h 38mn
Bit rate : 1 826 Kbps
Width : 704 pixels
Height : 464 pixels
Display aspect ratio : 3:2
Frame rate : 25.000 fps
Color space : YUV
Chroma subsampling : 4:2:0
Bit depth : 8 bits
Scan type : Progressive
Compression mode : Lossy
Bits/(Pixel*Frame) : 0.224
Stream size : 2.02 GiB (93%)
Writing library : XviD 73
Audio
ID : 1
Format : MPEG Audio
Format version : Version 1
Format profile : Layer 3
Mode : Joint stereo
Mode extension : MS Stereo
Codec ID : 55
Codec ID/Hint : MP3
Duration : 2h 38mn
Bit rate mode : Constant
Bit rate : 128 Kbps
Channel(s) : 2 channels
Sampling rate : 48.0 KHz
Compression mode : Lossy
Stream size : 145 MiB (7%)
Alignment : Split accross interleaves
Interleave, duration : 40 ms (1.00 video frame)
Interleave, preload duratio : 500 ms
Writing library : LAME3.98.2
Не забывайте говорить Спасибо. Не уходите с раздачи!   
Торрент: Зарегистрирован [13 фев 2018, 18:43] Для скачивания .torrent
необходима регистрация
Или скачать с помощью
MediaGet
Статус:
Проверен
 
.torrent скачан: 2 раз
Хэш: 377ee02b317834f43f4f2bb8f8f5a8e2f87e797d
Размер: 2.18 ГБ (2 337 411 072 байт)
   Стать Автором раздачи
   
Цитата
  • Похожие торренты
    Ответы
    Просмотры
    Последнее сообщение

Вернуться в Спектакли и театральные постановки

Кто сейчас на конференции

Сейчас эту тему просматривают: нет зарегистрированных пользователей и гости: 1