VA - Утомлённое солнце. Песни 30-50-х (2008) [FLAC|Lossless|tracks + .cue] <Советская эстрада, Ретро>

 Статистика раздачи 
Размер: 360.27 МБ   |  Зарегистрирован: 29 дек 2017, 16:21   |   .torrent скачан: 3 раз
Сидеров: 5  [ 0 байт/сек ]     Личеров: 2  [ 0 байт/сек ]  
  
Аватара пользователя
 
Раздал: 2.63 ТБ
Скачал: 6.03 ГБ
Ратио: 446.458
Сообщения: 176287
Стаж: 1 год 4 месяца 25 дней

VA - Утомлённое солнце. Песни 30-50-х (2008)

Жанр: Советская эстрада, Ретро
Издание: Мелодия - MEL CD 60 01395
Продолжительность: 01:16:25

Кодек: FLAC
Битрейт: Lossless
Тип рипа: tracks + .cue

Треклист:
01. Барон фон дер Пшик - М. Курдин
02. Джеймс Кеннеди - Джаз-оркестр театра Краснознамённого Балтфлота
03. Бомбардировщики - Леонид Утёсов, Эдит Утёсова
04. Осень - Вадим Козин, "Танго-ансамбль" п/у Я. Хаскина
05. Утомлённое солнце - Павел Михайлов
06. Чёрные глаза - Марик Белорусов, Marek Weber & His Orchestra
07. Моя Марусечка - Пётр Лещенко, оркестр "Беллаккорд"
08. Дядя Ваня - Клавдия Шульженко, Ленинградский джаз-оркестр под управлением А.Семёнова
09. Священная война - Краснознамённый ансамбль песни и пляски Советской Армии им. А.В.Александрова
10. Алёша - Алла Иошпе, Стахан Рахимов
11. Вернулся я на Родину - Леонид Утёсов
12. Где же вы теперь, друзья-однополчане - Клавдия Шульженко
13. Тёмная ночь - Марк Бернес
14. В землянке - Владимир Трошин
15. Синий платочек - Клавдия Шульженко
16. Три танкиста (из к/ф "Трактористы") - Виктор Селиванов, Владимир Федосеев, Эстрадно-симфонический оркестр Всесоюзного радио и телевидения
17. Катюша - Георгий Виноградов
18. Враги сожгли родную хату - Марк Бернес
19. Соловьи - Краснознамённый ансамбль песни и пляски Советской Армии им. А.В.Александрова
20. Смуглянка - Краснознамённый ансамбль песни и пляски Советской Армии им. А.В.Александрова
21. Эх, дороги… - Георгий Виноградов
22. Дорога на Берлин - Леонид Утёсов
23. На безымянной высоте - Юрий Гуляев
Код: Выделить всё
Exact Audio Copy V1.0 beta 3 from 29. August 2011

EAC extraction logfile from 4. June 2014, 21:34

Various Artists / Утомлённое солнце

Used drive  : SlimtypeDVD A DS8A4S   Adapter: 1  ID: 0

Read mode               : Secure
Utilize accurate stream : Yes
Defeat audio cache      : Yes
Make use of C2 pointers : No

Read offset correction                      : 6
Overread into Lead-In and Lead-Out          : No
Fill up missing offset samples with silence : Yes
Delete leading and trailing silent blocks   : No
Null samples used in CRC calculations       : Yes
Used interface                              : Native Win32 interface for Win NT & 2000
Gap handling                                : Appended to previous track

Used output format              : User Defined Encoder
Selected bitrate                : 896 kBit/s
Quality                         : High
Add ID3 tag                     : No
Command line compressor         : C:\Program Files\Exact Audio Copy\Flac\flac.exe
Additional command line options : -V -8 -T "Genre=%genre%" -T "Artist=%artist%" -T "Title=%title%" -T "Album=%albumtitle%" -T "Date=%year%" -T "Tracknumber=%tracknr%" -T "Comment=%comment%" %source%

TOC of the extracted CD

     Track |   Start  |  Length  | Start sector | End sector
    ---------------------------------------------------------
        1  |  0:02.00 |  3:01.51 |       150    |    13775
        2  |  3:03.51 |  4:07.56 |     13776    |    32356
        3  |  7:11.32 |  2:17.40 |     32357    |    42671
        4  |  9:28.72 |  3:06.17 |     42672    |    56638
        5  | 12:35.14 |  3:01.64 |     56639    |    70277
        6  | 15:37.03 |  3:27.17 |     70278    |    85819
        7  | 19:04.20 |  2:29.18 |     85820    |    97012
        8  | 21:33.38 |  2:44.00 |     97013    |   109312
        9  | 24:17.38 |  4:18.46 |    109313    |   128708
       10  | 28:36.09 |  4:22.45 |    128709    |   148403
       11  | 32:58.54 |  2:37.68 |    148404    |   160246
       12  | 35:36.47 |  3:06.00 |    160247    |   174196
       13  | 38:42.47 |  3:25.42 |    174197    |   189613
       14  | 42:08.14 |  3:06.55 |    189614    |   203618
       15  | 45:14.69 |  2:57.73 |    203619    |   216966
       16  | 48:12.67 |  3:15.64 |    216967    |   231655
       17  | 51:28.56 |  2:20.15 |    231656    |   242170
       18  | 53:48.71 |  3:35.67 |    242171    |   258362
       19  | 57:24.63 |  5:56.43 |    258363    |   285105
       20  | 63:21.31 |  2:55.23 |    285106    |   298253
       21  | 66:16.54 |  2:58.62 |    298254    |   311665
       22  | 69:15.41 |  2:37.49 |    311666    |   323489
       23  | 71:53.15 |  4:32.21 |    323490    |   343910

Track  1

     Filename G:\Сборники\Утомлённое солнце. Песни 30-50х\01 Барон фон дер Пшик.wav

     Pre-gap length  0:00:04.00

     Peak level 74.3 %
     Extraction speed 2.0 X
     Track quality 100.0 %
     Test CRC 59AED9F2
     Copy CRC 59AED9F2
     Accurately ripped (confidence 3)  [E92B60F7]  (AR v1)
     Copy OK

Track  2

     Filename G:\Сборники\Утомлённое солнце. Песни 30-50х\02 Джеймс Кеннеди.wav

     Pre-gap length  0:00:04.00

     Peak level 66.5 %
     Extraction speed 2.1 X
     Track quality 100.0 %
     Test CRC CF4225E6
     Copy CRC CF4225E6
     Accurately ripped (confidence 3)  [41D40389]  (AR v1)
     Copy OK

Track  3

     Filename G:\Сборники\Утомлённое солнце. Песни 30-50х\03 Бомбардировщики.wav

     Pre-gap length  0:00:04.00

     Peak level 84.7 %
     Extraction speed 1.9 X
     Track quality 100.0 %
     Test CRC F1E8A4C7
     Copy CRC F1E8A4C7
     Accurately ripped (confidence 3)  [52A5CD7E]  (AR v1)
     Copy OK

Track  4

     Filename G:\Сборники\Утомлённое солнце. Песни 30-50х\04 Осень.wav

     Pre-gap length  0:00:04.00

     Peak level 83.6 %
     Extraction speed 1.7 X
     Track quality 99.9 %
     Test CRC 9C7E3E24
     Copy CRC 9C7E3E24
     Accurately ripped (confidence 3)  [C2362748]  (AR v1)
     Copy OK

Track  5

     Filename G:\Сборники\Утомлённое солнце. Песни 30-50х\05 Утомлённое солнце.wav

     Pre-gap length  0:00:04.00

     Peak level 77.3 %
     Extraction speed 2.0 X
     Track quality 100.0 %
     Test CRC 50E13174
     Copy CRC 50E13174
     Accurately ripped (confidence 3)  [E226FB43]  (AR v1)
     Copy OK

Track  6

     Filename G:\Сборники\Утомлённое солнце. Песни 30-50х\06 Чёрные глаза.wav

     Pre-gap length  0:00:04.00

     Peak level 84.7 %
     Extraction speed 2.0 X
     Track quality 100.0 %
     Test CRC 5EE59684
     Copy CRC 5EE59684
     Accurately ripped (confidence 3)  [36406232]  (AR v1)
     Copy OK

Track  7

     Filename G:\Сборники\Утомлённое солнце. Песни 30-50х\07 Моя Марусечка.wav

     Pre-gap length  0:00:04.00

     Peak level 93.6 %
     Extraction speed 1.9 X
     Track quality 100.0 %
     Test CRC F9938517
     Copy CRC F9938517
     Accurately ripped (confidence 3)  [31A1F6D7]  (AR v1)
     Copy OK

Track  8

     Filename G:\Сборники\Утомлённое солнце. Песни 30-50х\08 Дядя Ваня.wav

     Pre-gap length  0:00:04.00

     Peak level 91.1 %
     Extraction speed 1.6 X
     Track quality 99.9 %
     Test CRC 53FA48B6
     Copy CRC 53FA48B6
     Accurately ripped (confidence 3)  [37F6F474]  (AR v1)
     Copy OK

Track  9

     Filename G:\Сборники\Утомлённое солнце. Песни 30-50х\09 Священная война.wav

     Pre-gap length  0:00:04.00

     Peak level 87.6 %
     Extraction speed 1.8 X
     Track quality 99.9 %
     Test CRC 14232A06
     Copy CRC 14232A06
     Accurately ripped (confidence 3)  [46A2AD6F]  (AR v1)
     Copy OK

Track 10

     Filename G:\Сборники\Утомлённое солнце. Песни 30-50х\10 Алёша.wav

     Pre-gap length  0:00:04.00

     Peak level 74.9 %
     Extraction speed 1.8 X
     Track quality 99.9 %
     Test CRC 48A2F466
     Copy CRC 48A2F466
     Accurately ripped (confidence 3)  [A30AB551]  (AR v1)
     Copy OK

Track 11

     Filename G:\Сборники\Утомлённое солнце. Песни 30-50х\11 Вернулся я на Родину.wav

     Pre-gap length  0:00:04.00

     Peak level 84.2 %
     Extraction speed 1.9 X
     Track quality 100.0 %
     Test CRC E06F2AC3
     Copy CRC E06F2AC3
     Accurately ripped (confidence 3)  [95A1E1A1]  (AR v1)
     Copy OK

Track 12

     Filename G:\Сборники\Утомлённое солнце. Песни 30-50х\12 Где же вы теперь, друзья-однополчане.wav

     Pre-gap length  0:00:04.00

     Peak level 90.7 %
     Extraction speed 2.0 X
     Track quality 100.0 %
     Test CRC 63E48D03
     Copy CRC 63E48D03
     Accurately ripped (confidence 3)  [6DA79245]  (AR v1)
     Copy OK

Track 13

     Filename G:\Сборники\Утомлённое солнце. Песни 30-50х\13 Тёмная ночь.wav

     Pre-gap length  0:00:04.00

     Peak level 89.1 %
     Extraction speed 2.0 X
     Track quality 100.0 %
     Test CRC 85B10934
     Copy CRC 85B10934
     Accurately ripped (confidence 3)  [1E4E86AF]  (AR v1)
     Copy OK

Track 14

     Filename G:\Сборники\Утомлённое солнце. Песни 30-50х\14 В землянке.wav

     Pre-gap length  0:00:04.00

     Peak level 89.1 %
     Extraction speed 2.0 X
     Track quality 100.0 %
     Test CRC 3C341A5F
     Copy CRC 3C341A5F
     Accurately ripped (confidence 3)  [D64947B0]  (AR v1)
     Copy OK

Track 15

     Filename G:\Сборники\Утомлённое солнце. Песни 30-50х\15 Синий платочек.wav

     Pre-gap length  0:00:04.00

     Peak level 75.7 %
     Extraction speed 1.7 X
     Track quality 99.9 %
     Test CRC EC23710C
     Copy CRC EC23710C
     Accurately ripped (confidence 3)  [5FCC4D62]  (AR v1)
     Copy OK

Track 16

     Filename G:\Сборники\Утомлённое солнце. Песни 30-50х\16 Три танкиста из к,ф ''Трактористы''.wav

     Pre-gap length  0:00:04.00

     Peak level 89.6 %
     Extraction speed 1.7 X
     Track quality 99.9 %
     Test CRC 01EAB708
     Copy CRC 01EAB708
     Accurately ripped (confidence 3)  [F9FB2C96]  (AR v1)
     Copy OK

Track 17

     Filename G:\Сборники\Утомлённое солнце. Песни 30-50х\17 Катюша.wav

     Pre-gap length  0:00:04.00

     Peak level 100.0 %
     Extraction speed 1.9 X
     Track quality 100.0 %
     Test CRC 8CF4F750
     Copy CRC 8CF4F750
     Accurately ripped (confidence 3)  [99AB8284]  (AR v1)
     Copy OK

Track 18

     Filename G:\Сборники\Утомлённое солнце. Песни 30-50х\18 Враги сожгли родную хату.wav

     Pre-gap length  0:00:04.00

     Peak level 89.9 %
     Extraction speed 2.0 X
     Track quality 100.0 %
     Test CRC 1C539A70
     Copy CRC 1C539A70
     Accurately ripped (confidence 3)  [88C41904]  (AR v1)
     Copy OK

Track 19

     Filename G:\Сборники\Утомлённое солнце. Песни 30-50х\19 Соловьи.wav

     Pre-gap length  0:00:04.00

     Peak level 92.5 %
     Extraction speed 2.0 X
     Track quality 99.9 %
     Test CRC 930C8F52
     Copy CRC 930C8F52
     Accurately ripped (confidence 3)  [E057ECAA]  (AR v1)
     Copy OK

Track 20

     Filename G:\Сборники\Утомлённое солнце. Песни 30-50х\20 Смуглянка.wav

     Pre-gap length  0:00:04.00

     Peak level 100.0 %
     Extraction speed 1.6 X
     Track quality 99.9 %
     Test CRC 41C66F7F
     Copy CRC 41C66F7F
     Accurately ripped (confidence 3)  [FC5AD55E]  (AR v1)
     Copy OK

Track 21

     Filename G:\Сборники\Утомлённое солнце. Песни 30-50х\21 Эх, дороги....wav

     Pre-gap length  0:00:04.00

     Peak level 86.3 %
     Extraction speed 2.0 X
     Track quality 100.0 %
     Test CRC B14FE4BA
     Copy CRC B14FE4BA
     Accurately ripped (confidence 3)  [0D95FC79]  (AR v1)
     Copy OK

Track 22

     Filename G:\Сборники\Утомлённое солнце. Песни 30-50х\22 Дорога на Берлин.wav

     Pre-gap length  0:00:04.00

     Peak level 97.3 %
     Extraction speed 1.9 X
     Track quality 100.0 %
     Test CRC 31600F79
     Copy CRC 31600F79
     Accurately ripped (confidence 3)  [31FB8488]  (AR v1)
     Copy OK

Track 23

     Filename G:\Сборники\Утомлённое солнце. Песни 30-50х\23 На безымянной высоте.wav

     Pre-gap length  0:00:04.00

     Peak level 94.1 %
     Extraction speed 2.1 X
     Track quality 100.0 %
     Test CRC D8D8A75B
     Copy CRC D8D8A75B
     Accurately ripped (confidence 3)  [B56161EA]  (AR v1)
     Copy OK

All tracks accurately ripped

No errors occurred

End of status report

==== Log checksum 683273458AF1D70EAC68D535B9195AF6B0AF98B326EBB9FAA6527FEF068172D2 ====
Код: Выделить всё
REM GENRE Retro
REM DATE 2008
REM DISCID 5A11E717
REM COMMENT "ExactAudioCopy v1.0b3"
PERFORMER "Various Artists"
TITLE "Утомлённое солнце"
FILE "01 Барон фон дер Пшик.wav" WAVE
  TRACK 01 AUDIO
    TITLE "Барон фон дер Пшик"
    PERFORMER "М.Курдин"
    FLAGS DCP
    PREGAP 00:02:00
    INDEX 01 00:00:00
  TRACK 02 AUDIO
    TITLE "Джеймс Кеннеди"
    PERFORMER "Джаз-оркестр театра Краснознамённого Балтфлота"
    FLAGS DCP
    INDEX 00 02:57:51
FILE "02 Джеймс Кеннеди.wav" WAVE
    INDEX 01 00:00:00
  TRACK 03 AUDIO
    TITLE "Бомбардировщики"
    PERFORMER "Л.Утёсов, Э.Утёсова"
    FLAGS DCP
    INDEX 00 04:03:56
FILE "03 Бомбардировщики.wav" WAVE
    INDEX 01 00:00:00
  TRACK 04 AUDIO
    TITLE "Осень"
    PERFORMER "В.Козин и 'Танго-ансамбль' п/у Я.Хаскина"
    FLAGS DCP
    INDEX 00 02:13:40
FILE "04 Осень.wav" WAVE
    INDEX 01 00:00:00
  TRACK 05 AUDIO
    TITLE "Утомлённое солнце"
    PERFORMER "П.Михайлов"
    FLAGS DCP
    INDEX 00 03:02:17
FILE "05 Утомлённое солнце.wav" WAVE
    INDEX 01 00:00:00
  TRACK 06 AUDIO
    TITLE "Чёрные глаза"
    PERFORMER "М.Белорусов и оркестр п/у М.Вебера"
    FLAGS DCP
    INDEX 00 02:57:64
FILE "06 Чёрные глаза.wav" WAVE
    INDEX 01 00:00:00
  TRACK 07 AUDIO
    TITLE "Моя Марусечка"
    PERFORMER "П.Лещенко и оркестр 'Беллаккорд'"
    FLAGS DCP
    INDEX 00 03:23:17
FILE "07 Моя Марусечка.wav" WAVE
    INDEX 01 00:00:00
  TRACK 08 AUDIO
    TITLE "Дядя Ваня"
    PERFORMER "К.Шульженко"
    FLAGS DCP
    INDEX 00 02:25:18
FILE "08 Дядя Ваня.wav" WAVE
    INDEX 01 00:00:00
  TRACK 09 AUDIO
    TITLE "Священная война"
    PERFORMER "Краснознамённый ансамбль им.Александрова"
    FLAGS DCP
    INDEX 00 02:40:00
FILE "09 Священная война.wav" WAVE
    INDEX 01 00:00:00
  TRACK 10 AUDIO
    TITLE "Алёша"
    PERFORMER "А.Иошпе и С.Рахимов"
    FLAGS DCP
    INDEX 00 04:14:46
FILE "10 Алёша.wav" WAVE
    INDEX 01 00:00:00
  TRACK 11 AUDIO
    TITLE "Вернулся я на Родину"
    PERFORMER "Л.Утёсов"
    FLAGS DCP
    INDEX 00 04:18:45
FILE "11 Вернулся я на Родину.wav" WAVE
    INDEX 01 00:00:00
  TRACK 12 AUDIO
    TITLE "Где же вы теперь, друзья-однополчане"
    PERFORMER "К.Шульженко"
    FLAGS DCP
    INDEX 00 02:33:68
FILE "12 Где же вы теперь, друзья-однополчане.wav" WAVE
    INDEX 01 00:00:00
  TRACK 13 AUDIO
    TITLE "Тёмная ночь"
    PERFORMER "М.Бернес"
    FLAGS DCP
    INDEX 00 03:02:00
FILE "13 Тёмная ночь.wav" WAVE
    INDEX 01 00:00:00
  TRACK 14 AUDIO
    TITLE "В землянке"
    PERFORMER "В.Трошин"
    FLAGS DCP
    INDEX 00 03:21:42
FILE "14 В землянке.wav" WAVE
    INDEX 01 00:00:00
  TRACK 15 AUDIO
    TITLE "Синий платочек"
    PERFORMER "К.Шульженко"
    FLAGS DCP
    INDEX 00 03:02:55
FILE "15 Синий платочек.wav" WAVE
    INDEX 01 00:00:00
  TRACK 16 AUDIO
    TITLE "Три танкиста из к/ф 'Трактористы'"
    PERFORMER "В.Селиванов, эстрадно-симфонический оркестр ВР и Т"
    FLAGS DCP
    INDEX 00 02:53:73
FILE "16 Три танкиста из к,ф ''Трактористы''.wav" WAVE
    INDEX 01 00:00:00
  TRACK 17 AUDIO
    TITLE "Катюша"
    PERFORMER "Г.Виноградов"
    FLAGS DCP
    INDEX 00 03:11:64
FILE "17 Катюша.wav" WAVE
    INDEX 01 00:00:00
  TRACK 18 AUDIO
    TITLE "Враги сожгли родную хату"
    PERFORMER "М.Бернес"
    FLAGS DCP
    INDEX 00 02:16:15
FILE "18 Враги сожгли родную хату.wav" WAVE
    INDEX 01 00:00:00
  TRACK 19 AUDIO
    TITLE "Соловьи"
    PERFORMER "Краснознамённый ансамбль им.Александрова"
    FLAGS DCP
    INDEX 00 03:31:67
FILE "19 Соловьи.wav" WAVE
    INDEX 01 00:00:00
  TRACK 20 AUDIO
    TITLE "Смуглянка"
    PERFORMER "Краснознамённый ансамбль им.Александрова"
    FLAGS DCP
    INDEX 00 05:52:43
FILE "20 Смуглянка.wav" WAVE
    INDEX 01 00:00:00
  TRACK 21 AUDIO
    TITLE "Эх, дороги..."
    PERFORMER "Г.Виноградов"
    FLAGS DCP
    INDEX 00 02:51:23
FILE "21 Эх, дороги....wav" WAVE
    INDEX 01 00:00:00
  TRACK 22 AUDIO
    TITLE "Дорога на Берлин"
    PERFORMER "Л.Утёсов"
    FLAGS DCP
    INDEX 00 02:54:62
FILE "22 Дорога на Берлин.wav" WAVE
    INDEX 01 00:00:00
  TRACK 23 AUDIO
    TITLE "На безымянной высоте"
    PERFORMER "Ю.Гуляев"
    FLAGS DCP
    INDEX 00 02:33:49
FILE "23 На безымянной высоте.wav" WAVE
    INDEX 01 00:00:00
Код: Выделить всё
-----------------------

DON'T MODIFY THIS FILE

-----------------------

PERFORMER: auCDtect Task Manager, ver. 1.6.0 RC1 build 1.6.0.1
Copyright (c) 2008-2010 y-soft. All rights reserved
[url=http://y-soft.org]http://y-soft.org[/url]

ANALYZER: auCDtect: CD records authenticity detector, version 0.8.2
Copyright (c) 2004 Oleg Berngardt. All rights reserved.
Copyright (c) 2004 Alexander Djourik. All rights reserved.

FILE: 23 На безымянной высоте.flac
  Size: 22893615 Hash: 4CE56381D75912257994C73F71255F28 Accuracy: -m0
  Conclusion: CDDA 100%
  Signature: 01717BD2490B13682FF2C4340BA7311A064E4C59
FILE: 22 Дорога на Берлин.flac
  Size: 13047774 Hash: BCC8CF56F909B22518EE5AF21FC9E23E Accuracy: -m0
  Conclusion: CDDA 100%
  Signature: E1CFF7E953F501F6D5246C46C8CFF0AF4FA4E382
FILE: 21 Эх, дороги....flac
  Size: 13583587 Hash: 0EDA407EFB3A111FB9A7B6457DB63AC4 Accuracy: -m0
  Conclusion: CDDA 100%
  Signature: 36D752E911ABCD91BC998B80A214548D65F80E1E
FILE: 20 Смуглянка.flac
  Size: 15519038 Hash: C0C29D48933AFBE2E006680EB35B384F Accuracy: -m0
  Conclusion: CDDA 99%
  Signature: 51B689EA8DF1C273F4062BF0575305E078FC8418
FILE: 19 Соловьи.flac
  Size: 30454002 Hash: 3CBF25B07EF3A5A0D66BB1C22805AA6E Accuracy: -m0
  Conclusion: CDDA 100%
  Signature: 32FFC8C05C3AD0417C317BA116C130D302FC057E
FILE: 18 Враги сожгли родную хату.flac
  Size: 16891805 Hash: 14110A162B70882FEE256C25B21EBE45 Accuracy: -m0
  Conclusion: CDDA 86%
  Signature: 49B47C6F03D6645ABE4810BF8BF72AA290BBC770
FILE: 17 Катюша.flac
  Size: 9625263 Hash: FFEB931A4E55D610C5510E99D712A69F Accuracy: -m0
  Conclusion: CDDA 100%
  Signature: 22CDCC38B9ADA87A522A011223A52030CE1D2954
FILE: 16 Три танкиста из к,ф ''Трактористы''.flac
  Size: 18586979 Hash: 4E39FE82E7AFFB30AED26DA87CE61C85 Accuracy: -m0
  Conclusion: CDDA 100%
  Signature: F8FB4B7E0AFE5227B0F0AAB93517F121F6B9AECC
FILE: 15 Синий платочек.flac
  Size: 15727574 Hash: D95E41E39796E68634242449ADDCB826 Accuracy: -m0
  Conclusion: CDDA 100%
  Signature: D3C8D38B3286F2F0CCB734677AC1B4D0BBD5B18B
FILE: 14 В землянке.flac
  Size: 15961229 Hash: 2DCE50B40399A62638D8333E70955591 Accuracy: -m0
  Conclusion: CDDA 100%
  Signature: 7AE331642EEC4C7E54938EFB4DEE2AE26F679AF5
FILE: 13 Тёмная ночь.flac
  Size: 14215839 Hash: 31FE0BB76A7F471197DF4D4284E0CD73 Accuracy: -m0
  Conclusion: CDDA 100%
  Signature: 4E68488EFB3DCA67285DC420D9FC64B20078CC4B
FILE: 12 Где же вы теперь, друзья-однополчане.flac
  Size: 13808654 Hash: FF8FD5E0A886D8AFA53870155179FF54 Accuracy: -m0
  Conclusion: MPEG 90%
  Signature: 8244BDECB737B8D2F98EC8BBABE2963A07D75AA0
FILE: 11 Вернулся я на Родину.flac
  Size: 12480361 Hash: 5B86FC258EB0992195ACBBB6F2C8FB9E Accuracy: -m0
  Conclusion: CDDA 99%
  Signature: D306488FCF33F1A248D191291080790C0E62D849
FILE: 10 Алёша.flac
  Size: 23979025 Hash: CCCEB559272603B952AAE07F81E586FF Accuracy: -m0
  Conclusion: CDDA 100%
  Signature: D33ABA19B91E26853EB0D16F951F18239CC14580
FILE: 09 Священная война.flac
  Size: 26984837 Hash: 63D93BA86048174735DC22CCC01CA09B Accuracy: -m0
  Conclusion: CDDA 100%
  Signature: 039404086B97F797DD3BE58C21E587E36E222B7D
FILE: 08 Дядя Ваня.flac
  Size: 11796204 Hash: A74CCDEE54E7414B0935B47ECFAA624F Accuracy: -m0
  Conclusion: CDDA 100%
  Signature: A881E86E7C63D8A7DC4B0FB9AB86C2B11FEA951D
FILE: 07 Моя Марусечка.flac
  Size: 11898158 Hash: 84AD433C9A4C426A0BDC5742E7BC236F Accuracy: -m0
  Conclusion: CDDA 100%
  Signature: CA8FC77F3789F0D931FCED7DC3C0D439F611E771
FILE: 06 Чёрные глаза.flac
  Size: 16519976 Hash: 70AB71D46A6B22AB3B146D1BD625112E Accuracy: -m0
  Conclusion: CDDA 100%
  Signature: 956EF573494F831CB9659FD64888EA4DB6067767
FILE: 05 Утомлённое солнце.flac
  Size: 13652967 Hash: 290E1ADE5546F307568CF4E3132DD689 Accuracy: -m0
  Conclusion: CDDA 100%
  Signature: A38B4A8144E7885A3BEC7068C733E874779BCF24
FILE: 04 Осень.flac
  Size: 11863792 Hash: D84296D76F7B74335CF00A15A97E7DBB Accuracy: -m0
  Conclusion: CDDA 99%
  Signature: F3D15E4C85A26CA72418AE28882AFE5B74C532E9
FILE: 03 Бомбардировщики.flac
  Size: 10931012 Hash: FF5B8D513AEFFB17E5A34AA8823BBF29 Accuracy: -m0
  Conclusion: CDDA 100%
  Signature: BED4C8ECF42C533323EDF196FA29170D022139D3
FILE: 02 Джеймс Кеннеди.flac
  Size: 22406436 Hash: E9529E286600F180DB78648B17975147 Accuracy: -m0
  Conclusion: CDDA 99%
  Signature: CFF6541595C93598F3A217D732A27E2C10876CC5
FILE: 01 Барон фон дер Пшик.flac
  Size: 14258792 Hash: B8F768B593ED69E43655FA8781DBECED Accuracy: -m0
  Conclusion: CDDA 49%
  Signature: F8C293B68F90D769B205D7B9865909DC6B62AB51

#7
Код: Выделить всё
[b]Поглощение/вытеснение [/b]
[b]Только с согласия релизера[/b]
[b][u][i]Pashketan[/b][/i][/u]

   
Торрент: Зарегистрирован [29 дек 2017, 16:21] Сhanson Скачать торрент Магнет ссылка
Скачать торрент
[ Размер 16.79 КБ / Просмотров 28 ]
Статус:
Проверен
 
.torrent скачан: 3 раз
Размер: 360.27 МБ (377 774 193 байт)
   Стать Автором раздачи
 
 
Цитата

Вернуться в Сhanson

Кто сейчас на конференции

Сейчас эту тему просматривают: нет зарегистрированных пользователей и гости: 1