Лицей - Концерт у Маргулиса на НТВ [23.12] (2017) HDTVRip

 Статистика раздачи 
Размер: 893.1 МБ   |  Зарегистрирован: 11 фев 2018, 18:45   |   .torrent скачан: 5 раз
Сидеров: 6  [ 0 байт/сек ]     Личеров: 5  [ 0 байт/сек ]  
  
Аватара пользователя
 
Раздал: 0 байт
Скачал: 0 байт
Ратио: Inf.
Сообщения: 13526
Стаж: 7 лет 3 месяца 4 дня

Исполнитель: Лицей
Жанр: POP, ROCK
Год выпуска: 2017
Продолжительность: 00:56:42
Описание: Концерт группы Лицей в рамках
программы "Квартирник у Маргулиса" на телеканале НТВ.

Отдельная благодарность пользователю kuzmichm2196 за исходник.

Формат: AVI
Качество: HDTVRip
Видео кодек: DIVX
Аудио кодек: MP3
Видео: DIVX, 720 x 400, ~2 000 Kbps, 25fps
Аудио: MP3, 2 ch, 192 Kbps, 48000Hz
1.Субботний вечер
2.Хороший парень
3.Небо
4.Дороги наши разошлись
5.След на воде
6.Мчится время
7.Ты станешь взрослой
8.Лей ливень всю ночь напролет
9.Как ты о нем мечтала
10.Осень
11.Домашний арест
Licey_23.12.17.avi
Format : AVI
Format/Info : Audio Video Interleave
File size : 893 MiB
Duration : 56 min 42 s
Overall bit rate : 2 202 kb/s

Video
ID : 0
Format : MPEG-4 Visual
Format profile : Advanced [email protected]
Format settings : BVOP2
Format settings, BVOP : 2
Format settings, QPel : No
Format settings, GMC : No warppoints
Format settings, Matrix : Default (H.263)
Codec ID : DIVX
Codec ID/Info : Project Mayo
Codec ID/Hint : DivX 4
Duration : 56 min 42 s
Bit rate : 1 997 kb/s
Width : 720 pixels
Height : 400 pixels
Display aspect ratio : 16:9
Frame rate : 25.000 FPS
Color space : YUV
Chroma subsampling : 4:2:0
Bit depth : 8 bits
Scan type : Progressive
Compression mode : Lossy
Bits/(Pixel*Frame) : 0.277
Stream size : 810 MiB (91%)
Writing library : XviD 67

Audio
ID : 1
Format : MPEG Audio
Format version : Version 1
Format profile : Layer 3
Codec ID : 55
Codec ID/Hint : MP3
Duration : 56 min 42 s
Bit rate mode : Constant
Bit rate : 192 kb/s
Channel(s) : 2 channels
Sampling rate : 48.0 kHz
Compression mode : Lossy
Stream size : 77.9 MiB (9%)
Alignment : Aligned on interleaves
Interleave, duration : 24 ms (0.60 video frame)
   
Торрент: Зарегистрирован [11 фев 2018, 18:45] Скачать торрент Магнет ссылка
Скачать торрент
[ Размер 35.78 КБ / Просмотров 16 ]
Статус:
Проверен
 
.torrent скачан: 5 раз
Размер: 893.1 МБ (936 480 018 байт)
   Стать Автором раздачи
 
 
Цитата

Вернуться в Концерт у Маргулиса

Кто сейчас на конференции

Сейчас эту тему просматривают: нет зарегистрированных пользователей и гости: 1