Коллекция полнометражных мультфильмов студии Pixar [1995 -2010 г.] (мультфильм, фэнтези, комедия, приключения, семейный) [HDRip, 720p]

 Статистика раздачи 
Размер: 24.01 ГБ   |  Зарегистрирован: 23 май 2011, 09:23   |   .torrent скачан: 0 раз
Сидеров: 5  [ 0 байт/сек ]     Личеров: 24  [ 0 байт/сек ]  
  
Аватара пользователя
Администратор
Администратор
 
Раздал: 24.48 ТБ
Скачал: 388.83 ГБ
Ратио: 145.349
Сообщения: 6395
Стаж: 8 лет 10 дней
Откуда: Lithuania

Коллекция полнометражных мультфильмов студии Pixar


11 мультфильмов!


Коллекция великолепных полнометражных мультфильмов созданных студией Pixar совместно с Walt Disney Pictures. В сборник вошли все мультфильмы вышедшие на сегодняшний день. Среди них: "История игрушек" - первый полнометражный мультфильм, полностью смоделированный на компьютере; оскароносные "Рататуй", "Вверх" и "ВАЛЛ-И" - первый фильм студии Pixar, в котором использовалась игра живых актёров; "История игрушек: Большой побег" - первый мультфильм, кассовые сборы которого превысили миллиард долларов. А так же другие замечательные мультфильмы этой студии.

Список мультфильмов

1.История игрушек/Toy Story
2.Приключения Флика/A Bug's Life
3.История игрушек 2/Toy Story 2
4.Корпорация монстров/Monsters, Inc.
5.В поисках Немо/Finding Nemo
6.Суперсемейка/The Incredibles
7.Тачки/Cars
8.Рататуй/Ratatouille
9.ВАЛЛ.И/WALL-E
10.Вверх/Up
11.История игрушек 3/Toy Story 3





Toy Story


Год выпуска: 1995
Мировая премьера: 19 ноября 1995
Российская премьера: 1 октября 2009
Производство: Pixar
Жанр: мультфильм, фэнтези, комедия, приключения, семейный
Продолжительность: 01:21:25
Озвучивание:

1. дублированное
2. профессиональное многоголосое (Киномания)
3. профессиональное двухголосное (Гланц и Казакова)
4. оригинальное

Режиссер: Джон Лассетер/John Lasseter

В ролях: Том Хэнкс, Тим Аллен, Дон Риклз, Джим Варни, Уоллес Шоун, Джон Ратценбергер, Энни Поттс, Джон Моррис, Эрик Фон Деттен, Лори Меткаф

Описание: Каждый ребенок верит, что когда он оставляет свои игрушки одни, они начинают заниматься своими делами. Этот мультипликационный фильм позволяет убедиться им в своей правоте. Основная идея фильма — каждая игрушка боится надоесть, стать забытой, замененной другой, так как весь смысл их существования доставлять счастье своим хозяевам.

КиноПоиск

Источник/Качество: HDRip
Формат: AVI
Стандарт разрешения: 720p
Видео кодек: XviD
Аудио кодек: AC3
Видео: 720х400, 23.976 fps, ~2095 kbps
Аудио: AC3 Dolby Digital, 6 ch., 48 kHz, ~448.00 kbps
Аудио #2: AC3 Dolby Digital, 6 ch., 48 kHz, ~448.00 kbps
Аудио #3: AC3 Dolby Digital, 6 ch., 48 kHz, ~448.00 kbps
Аудио #4AC3 Dolby Digital, 6 ch., 48 kHz, ~384.00 kbps
Субтитры: отсутствуют
Оскар, 1996 год

Награда за особые достижения
Общее
Полное имя : C:\Коллекция полнометражных мультфильмов студии Pixar\Toy.Story.1995.HDRip-GUCHO.avi
Формат : AVI
Формат/Информация : Audio Video Interleave
Профиль формата : OpenDML
Размер файла : 2,19 Гбайт
Продолжительность : 1 ч. 21 м.
Общий поток : 3851 Кбит/сек
Название фильма : Istorija.Igrushek.1995.RUS.BDRip.XviD.AC3.-HELLYWOOD
Режиссёр : IRONHiDE
Программа кодирования : VirtualDubMod 1.5.10.2 (build 2540/release)
Библиотека кодирования : VirtualDubMod build 2540/release
Правообладатель : http://forum.hellywood.ru/

Видео
Идентификатор : 0
Формат : MPEG-4 Visual
Профиль формата : Advanced Simple@L5
Параметр BVOP формата : 1
Параметр QPel формата : Нет
Параметр GMC формата : Без точки перехода
Параметр матрицы формата : Выборочная
Идентификатор кодека : XVID
Идентификатор кодека/Подсказка : XviD
Продолжительность : 1 ч. 21 м.
Битрейт : 2095 Кбит/сек
Ширина : 720 пикс.
Высота : 400 пикс.
Соотношение сторон : 16:9
Частота кадров : 23,976 кадр/сек
Цветовое пространство : YUV
Подвыборка цветности : 4:2:0
Битовая глубина : 8 бит
Тип развёртки : Прогрессивная
Метод сжатия : С потерями
Бит/(Пиксели*Кадры) : 0.303
Размер потока : 1,19 Гбайт (54%)
Библиотека кодирования : XviD 1.2.1 (UTC 2008-12-04)

Аудио #1
Идентификатор : 1
Формат : AC-3
Формат/Информация : Audio Coding 3
Расширение режима : CM (complete main)
Идентификатор кодека : 2000
Продолжительность : 1 ч. 21 м.
Вид битрейта : Постоянный
Битрейт : 448 Кбит/сек
Канал(ы) : 6 канала(ов)
Расположение каналов : Front: L C R, Side: L R, LFE
Частота : 48,0 КГц
Битовая глубина : 16 бит
Метод сжатия : С потерями
Размер потока : 260 Мбайт (12%)
Выравнивание : Разделение по промежуткам
Продолжительность промежутка : 42 мс. (1,00 видеокадр)
Время предзагрузки промежутка : 500 ms

Аудио #2
Идентификатор : 2
Формат : AC-3
Формат/Информация : Audio Coding 3
Расширение режима : CM (complete main)
Идентификатор кодека : 2000
Продолжительность : 1 ч. 21 м.
Вид битрейта : Постоянный
Битрейт : 448 Кбит/сек
Канал(ы) : 6 канала(ов)
Расположение каналов : Front: L C R, Side: L R, LFE
Частота : 48,0 КГц
Битовая глубина : 16 бит
Метод сжатия : С потерями
Размер потока : 261 Мбайт (12%)
Выравнивание : Разделение по промежуткам
Продолжительность промежутка : 42 мс. (1,00 видеокадр)
Время предзагрузки промежутка : 500 ms

Аудио #3
Идентификатор : 3
Формат : AC-3
Формат/Информация : Audio Coding 3
Расширение режима : CM (complete main)
Идентификатор кодека : 2000
Продолжительность : 1 ч. 21 м.
Вид битрейта : Постоянный
Битрейт : 448 Кбит/сек
Канал(ы) : 6 канала(ов)
Расположение каналов : Front: L C R, Side: L R, LFE
Частота : 48,0 КГц
Битовая глубина : 16 бит
Метод сжатия : С потерями
Размер потока : 261 Мбайт (12%)
Выравнивание : Разделение по промежуткам
Продолжительность промежутка : 42 мс. (1,00 видеокадр)
Время предзагрузки промежутка : 500 ms

Аудио #4
Идентификатор : 4
Формат : AC-3
Формат/Информация : Audio Coding 3
Расширение режима : CM (complete main)
Идентификатор кодека : 2000
Продолжительность : 1 ч. 21 м.
Вид битрейта : Постоянный
Битрейт : 384 Кбит/сек
Канал(ы) : 6 канала(ов)
Расположение каналов : Front: L C R, Side: L R, LFE
Частота : 48,0 КГц
Битовая глубина : 16 бит
Метод сжатия : С потерями
Размер потока : 224 Мбайт (10%)
Выравнивание : Разделение по промежуткам
Продолжительность промежутка : 42 мс. (1,00 видеокадр)
Время предзагрузки промежутка : 500 ms










A Bug's Life


Год выпуска: 1998
Мировая премьера: 14 ноября 1998
Российская премьера: 12 мая 2001,
Производство: Pixar
Жанр: мультфильм, фэнтези, комедия, приключения, семейный
Продолжительность: 01:34:54
Озвучивание: 1. дублированное
2.профессиональное многоголосое (Киномания)
3.профессиональное двухголосное (Гланц и Казакова)
4. оригинальное
Режиссер: Джон Лассетер, Эндрю Стэнтон/John Lasseter, Andrew Stanton
В ролях: Дейв Фолей, Кевин Спейси, Джулия Льюис-Дрейфус, Хиден Пониттир, Филлис Диллер, Ричард Кинд, Девид Пирс, Джо Ранфт, Денис Лири, Джонатан Харрис
Описание: Действия картины происходят на острове, в колонии муравьев. Среди них особо выделяется изобретатель Флик. Муравьи занимались тем, что собирали дань в виде еды для кузнечиков. Однажды Флик случайно сбросил в воду всю собранную в виде дани еду. Кузнечики в результате чего увеличили дань. Флик решил противостоять этому. Так началась освободительная борьба муравьев за независимость.

Kinopoisk.ru

Источник/Качество: HDRip
Формат: AVI
Стандарт разрешения: 720p
Видео кодек: XviD
Аудио кодек: AC3
Видео: 720х304, 23.976 fps, ~1797 kbps
Аудио: AC3 Dolby Digital, 6 ch., 48 kHz, ~384.00 kbps
Аудио #2:AC3 Dolby Digital, 6 ch., 48 kHz, ~384.00 kbps
Аудио #3: AC3 Dolby Digital, 6 ch., 48 kHz, ~384.00 kbps
Аудио #4AC3 Dolby Digital, 6 ch., 48 kHz, ~384.00 kbps
Субтитры: отсутствуют
Общее
Полное имя : C:\Коллекция полнометражных мультфильмов студии Pixar\A.Bugs.Life.1998.HDRip-GUCHO.avi
Формат : AVI
Формат/Информация : Audio Video Interleave
Профиль формата : OpenDML
Размер файла : 2,19 Гбайт
Продолжительность : 1 ч. 34 м.
Общий поток : 3298 Кбит/сек
Программа кодирования : VirtualDubMod 1.5.10.2 (build 2540/release)
Библиотека кодирования : VirtualDubMod build 2540/release

Видео
Идентификатор : 0
Формат : MPEG-4 Visual
Профиль формата : Advanced Simple@L5
Параметр BVOP формата : 1
Параметр QPel формата : Нет
Параметр GMC формата : Без точки перехода
Параметр матрицы формата : Default (MPEG)
Идентификатор кодека : XVID
Идентификатор кодека/Подсказка : XviD
Продолжительность : 1 ч. 34 м.
Битрейт : 1797 Кбит/сек
Ширина : 720 пикс.
Высота : 304 пикс.
Соотношение сторон : 2,35:1
Частота кадров : 23,976 кадр/сек
Цветовое пространство : YUV
Подвыборка цветности : 4:2:0
Битовая глубина : 8 бит
Тип развёртки : Прогрессивная
Метод сжатия : С потерями
Бит/(Пиксели*Кадры) : 0.342
Размер потока : 1,19 Гбайт (54%)
Библиотека кодирования : XviD 1.2.1 (UTC 2008-12-04)

Аудио #1
Идентификатор : 1
Формат : AC-3
Формат/Информация : Audio Coding 3
Расширение режима : CM (complete main)
Идентификатор кодека : 2000
Продолжительность : 1 ч. 34 м.
Вид битрейта : Постоянный
Битрейт : 384 Кбит/сек
Канал(ы) : 6 канала(ов)
Расположение каналов : Front: L C R, Side: L R, LFE
Частота : 48,0 КГц
Битовая глубина : 16 бит
Метод сжатия : С потерями
Размер потока : 261 Мбайт (12%)
Выравнивание : Разделение по промежуткам
Продолжительность промежутка : 42 мс. (1,00 видеокадр)
Время предзагрузки промежутка : 500 ms

Аудио #2
Идентификатор : 2
Формат : AC-3
Формат/Информация : Audio Coding 3
Расширение режима : CM (complete main)
Идентификатор кодека : 2000
Продолжительность : 1 ч. 34 м.
Вид битрейта : Постоянный
Битрейт : 384 Кбит/сек
Канал(ы) : 6 канала(ов)
Расположение каналов : Front: L C R, Side: L R, LFE
Частота : 48,0 КГц
Битовая глубина : 16 бит
Метод сжатия : С потерями
Размер потока : 261 Мбайт (12%)
Выравнивание : Разделение по промежуткам
Продолжительность промежутка : 42 мс. (1,00 видеокадр)
Время предзагрузки промежутка : 500 ms

Аудио #3
Идентификатор : 3
Формат : AC-3
Формат/Информация : Audio Coding 3
Расширение режима : CM (complete main)
Идентификатор кодека : 2000
Продолжительность : 1 ч. 34 м.
Вид битрейта : Постоянный
Битрейт : 384 Кбит/сек
Канал(ы) : 6 канала(ов)
Расположение каналов : Front: L C R, Side: L R, LFE
Частота : 48,0 КГц
Битовая глубина : 16 бит
Метод сжатия : С потерями
Размер потока : 261 Мбайт (12%)
Выравнивание : Разделение по промежуткам
Продолжительность промежутка : 42 мс. (1,00 видеокадр)
Время предзагрузки промежутка : 500 ms

Аудио #4
Идентификатор : 4
Формат : AC-3
Формат/Информация : Audio Coding 3
Расширение режима : CM (complete main)
Идентификатор кодека : 2000
Продолжительность : 1 ч. 34 м.
Вид битрейта : Постоянный
Битрейт : 320 Кбит/сек
Канал(ы) : 6 канала(ов)
Расположение каналов : Front: L C R, Side: L R, LFE
Частота : 48,0 КГц
Битовая глубина : 16 бит
Метод сжатия : С потерями
Размер потока : 217 Мбайт (10%)
Выравнивание : Разделение по промежуткам
Продолжительность промежутка : 42 мс. (1,00 видеокадр)
Время предзагрузки промежутка : 500 ms









Toy Story 2


Год выпуска: 1999
Мировая премьера: 13 ноября 1999
Российская премьера: 1 октября 2009
Производство: Pixar
Жанр: мультфильм, фэнтези, комедия, приключения, семейный
Продолжительность: 01:32:55
Озвучивание: 1. дублированное
2. профессиональное многоголосое (Киномания)
3. профессиональное двухголосное (Гланц и Казакова)
4.оригинальное

Режиссер:Джон Лассетер, Эш Браннон, Ли Анкрич/John Lasseter, Ash Brannon, Lee Ankrich

В ролях:Том Хэнкс, Тим Аллен, Джоан Кьюсак, Келси Грэммер, Дон Риклз, Джим Варни, Уоллес Шоун, Джон Ратценбергер, Энни Поттс, Уэйн Най

Описание: Ковбой Вуди и другие игрушки мальчика по имени Энди продолжают жить, радуясь каждому дню. Но неожиданно все меняется, когда Вуди похищает коварный коллекционер. Оказывается, что Вуди — очень ценная игрушка из коллекции, за которую японский музей игрушек готов заплатить огромную сумму. В доме коллекционера он находит своих родственников. В это время игрушки во главе с Баззом Лайтером отправляются спасать Вуди. Вуди узнает о своем знаменитом прошлом, Базз и другие игрушки проходят опасный и тернистый путь. Перед Вуди встает непростой вопрос — каково же его предназначение? Блистать в витрине музея или же вернуться к любимому хозяину?

КиноПоиск

Источник/Качество: HDRip
Формат: AVI
Стандарт разрешения: 720p
Видео кодек: XviD
Аудио кодек: AC3
Видео: 720х400, 23.976 fps, ~1781 kbps
Аудио: AC3 Dolby Digital, 6 ch., 48 kHz, ~448.00 kbps
Аудио #2:AC3 Dolby Digital, 6 ch., 48 kHz, ~448.00 kbps
Аудио #3: AC3 Dolby Digital, 6 ch., 48 kHz, ~448.00 kbps
Аудио #4:AC3 Dolby Digital, 6 ch., 48 kHz, ~448.00 kbps
Субтитры: AC3 Dolby Digital, 6 ch., 48 kHz, ~448.00 kbps

Общее
Полное имя : C:\Коллекция полнометражных мультфильмов студии Pixar\Toy.Story.2.1999.HDRip-GUCHO.avi
Формат : AVI
Формат/Информация : Audio Video Interleave
Профиль формата : OpenDML
Размер файла : 2,17 Гбайт
Продолжительность : 1 ч. 32 м.
Общий поток : 3344 Кбит/сек
Название фильма : Istorija.Igrushek.2.1999.RUS.BDRip.XviD.AC3.-HELLYWOOD
Режиссёр : IRONHiDE
Программа кодирования : VirtualDubMod 1.5.10.2 (build 2540/release)
Библиотека кодирования : VirtualDubMod build 2540/release
Правообладатель : http://forum.hellywood.ru/

Видео
Идентификатор : 0
Формат : MPEG-4 Visual
Профиль формата : Advanced Simple@L5
Параметр BVOP формата : 1
Параметр QPel формата : Нет
Параметр GMC формата : Без точки перехода
Параметр матрицы формата : Выборочная
Идентификатор кодека : XVID
Идентификатор кодека/Подсказка : XviD
Продолжительность : 1 ч. 32 м.
Битрейт : 1781 Кбит/сек
Ширина : 720 пикс.
Высота : 400 пикс.
Соотношение сторон : 16:9
Частота кадров : 23,976 кадр/сек
Цветовое пространство : YUV
Подвыборка цветности : 4:2:0
Битовая глубина : 8 бит
Тип развёртки : Прогрессивная
Метод сжатия : С потерями
Бит/(Пиксели*Кадры) : 0.258
Размер потока : 1,16 Гбайт (53%)
Библиотека кодирования : XviD 1.2.1 (UTC 2008-12-04)

Аудио #1
Идентификатор : 1
Формат : AC-3
Формат/Информация : Audio Coding 3
Расширение режима : CM (complete main)
Идентификатор кодека : 2000
Продолжительность : 1 ч. 32 м.
Вид битрейта : Постоянный
Битрейт : 448 Кбит/сек
Канал(ы) : 6 канала(ов)
Расположение каналов : Front: L C R, Side: L R, LFE
Частота : 48,0 КГц
Битовая глубина : 16 бит
Метод сжатия : С потерями
Размер потока : 296 Мбайт (13%)
Выравнивание : Разделение по промежуткам
Продолжительность промежутка : 42 мс. (1,01 видеокадр)
Время предзагрузки промежутка : 500 ms

Аудио #2
Идентификатор : 2
Формат : AC-3
Формат/Информация : Audio Coding 3
Расширение режима : CM (complete main)
Идентификатор кодека : 2000
Продолжительность : 1 ч. 32 м.
Вид битрейта : Постоянный
Битрейт : 384 Кбит/сек
Канал(ы) : 6 канала(ов)
Расположение каналов : Front: L C R, Side: L R, LFE
Частота : 48,0 КГц
Битовая глубина : 16 бит
Метод сжатия : С потерями
Размер потока : 255 Мбайт (11%)
Выравнивание : Разделение по промежуткам
Продолжительность промежутка : 42 мс. (1,00 видеокадр)
Время предзагрузки промежутка : 500 ms

Аудио #3
Идентификатор : 3
Формат : AC-3
Формат/Информация : Audio Coding 3
Расширение режима : CM (complete main)
Идентификатор кодека : 2000
Продолжительность : 1 ч. 32 м.
Вид битрейта : Постоянный
Битрейт : 384 Кбит/сек
Канал(ы) : 6 канала(ов)
Расположение каналов : Front: L C R, Side: L R, LFE
Частота : 48,0 КГц
Битовая глубина : 16 бит
Метод сжатия : С потерями
Размер потока : 255 Мбайт (11%)
Выравнивание : Разделение по промежуткам
Продолжительность промежутка : 42 мс. (1,00 видеокадр)
Время предзагрузки промежутка : 500 ms

Аудио #4
Идентификатор : 4
Формат : AC-3
Формат/Информация : Audio Coding 3
Расширение режима : CM (complete main)
Идентификатор кодека : 2000
Продолжительность : 1 ч. 32 м.
Вид битрейта : Постоянный
Битрейт : 320 Кбит/сек
Канал(ы) : 6 канала(ов)
Расположение каналов : Front: L C R, Side: L R, LFE
Частота : 48,0 КГц
Битовая глубина : 16 бит
Метод сжатия : С потерями
Размер потока : 213 Мбайт (10%)
Выравнивание : Разделение по промежуткам
Продолжительность промежутка : 42 мс. (1,00 видеокадр)
Время предзагрузки промежутка : 500 ms











Monsters, Inc.


Год выпуска: 2001
Мировая премьера: 28 октября 2001
Российская премьера: 21 марта 2002
Производство: Pixar
Жанр: мультфильм, фэнтези, комедия, приключения, семейный
Продолжительность: 01:32:15
Озвучивание: 1.дублированное
2.авторское (Гаврилов)
3.оригинальное

Режиссер:Пит Доктер, Дэвид Силверман, Ли Анкрич/ Pete Docter, David Silverman, Lee Ankrich

В ролях:Джон Гудмен, Билли Кристал, Мэри Гиббс, Стив Бушеми, Джеймс Коберн, Дженнифер Тилли, Боб Питерсон, Джон Ратценбергер, Фрэнк Оз, Дэн Джерсон

Описание: Склизский гад в сливном бачке, мохнатый зверь, похожий на чудовище из «Аленького цветочка», гигантские мокрицы под кроватью - все они существуют на самом деле. Все, что им нужно - пугать детей, потому что из детских криков они получают электричество. Полнометражный мультфильм рассказывает о кризисах в мире монстров, их жизни. Но однажды вся мирная жизнь монстров оказывается под угрозой: в их мир попадает ребенок. А с детьми столько хлопот, что они могут довести даже монстров.

КиноПоиск
Оскар, 2002 год
Лучшая песня — «If I Didn't Have You»

Источник/Качество: HDRip
Формат: AVI
Стандарт разрешения: 720p
Видео кодек: XviD
Аудио кодек: AC3
Видео: 720x384, 23.976 fps, ~2037 kbps
Аудио: AC3 Dolby Digital, 6 ch., 48 kHz, ~448.00 kbps
Аудио #2: AC3 Dolby Digital, 6 ch., 48 kHz, ~448.00 kbps
Аудио #3: AC3 Dolby Digital, 6 ch., 48 kHz, ~448.00 kbps
Субтитры: Отсутствуют

Общее
Полное имя : C:\Коллекция полнометражных мультфильмов студии Pixar\Monsters._Inc.2001.HDRip-GUCHO.avi
Формат : AVI
Формат/Информация : Audio Video Interleave
Профиль формата : OpenDML
Размер файла : 2,18 Гбайт
Продолжительность : 1 ч. 32 м.
Общий поток : 3387 Кбит/сек
Название фильма : Корпорация Монстров / Monsters, Inc (2001) BDRip
Режиссёр : Serval
Программа кодирования : VirtualDubMod 1.5.10.2 (build 2542/release)
Правообладатель : http://www.hellywood.ru/
Примечание : 29.06.2009

Видео
Идентификатор : 0
Формат : MPEG-4 Visual
Профиль формата : Advanced Simple@L5
Параметр BVOP формата : 1
Параметр QPel формата : Нет
Параметр GMC формата : Без точки перехода
Параметр матрицы формата : Default (MPEG)
Идентификатор кодека : XVID
Идентификатор кодека/Подсказка : XviD
Продолжительность : 1 ч. 32 м.
Битрейт : 2020 Кбит/сек
Ширина : 720 пикс.
Высота : 384 пикс.
Соотношение сторон : 1,875
Частота кадров : 23,976 кадр/сек
Цветовое пространство : YUV
Подвыборка цветности : 4:2:0
Битовая глубина : 8 бит
Тип развёртки : Прогрессивная
Метод сжатия : С потерями
Бит/(Пиксели*Кадры) : 0.305
Размер потока : 1,30 Гбайт (60%)
Библиотека кодирования : XviD 1.2.1 (UTC 2008-12-04)

Аудио #1
Идентификатор : 1
Формат : AC-3
Формат/Информация : Audio Coding 3
Расширение режима : CM (complete main)
Идентификатор кодека : 2000
Продолжительность : 1 ч. 32 м.
Вид битрейта : Постоянный
Битрейт : 448 Кбит/сек
Канал(ы) : 6 канала(ов)
Расположение каналов : Front: L C R, Side: L R, LFE
Частота : 48,0 КГц
Битовая глубина : 16 бит
Метод сжатия : С потерями
Размер потока : 295 Мбайт (13%)
Выравнивание : Разделение по промежуткам
Продолжительность промежутка : 42 мс. (1,00 видеокадр)
Время предзагрузки промежутка : 500 ms

Аудио #2
Идентификатор : 2
Формат : AC-3
Формат/Информация : Audio Coding 3
Расширение режима : CM (complete main)
Идентификатор кодека : 2000
Продолжительность : 1 ч. 32 м.
Вид битрейта : Постоянный
Битрейт : 448 Кбит/сек
Канал(ы) : 6 канала(ов)
Расположение каналов : Front: L C R, Side: L R, LFE
Частота : 48,0 КГц
Битовая глубина : 16 бит
Метод сжатия : С потерями
Размер потока : 295 Мбайт (13%)
Выравнивание : Разделение по промежуткам
Продолжительность промежутка : 42 мс. (1,00 видеокадр)
Время предзагрузки промежутка : 500 ms

Аудио #3
Идентификатор : 3
Формат : AC-3
Формат/Информация : Audio Coding 3
Расширение режима : CM (complete main)
Идентификатор кодека : 2000
Продолжительность : 1 ч. 32 м.
Вид битрейта : Постоянный
Битрейт : 448 Кбит/сек
Канал(ы) : 6 канала(ов)
Расположение каналов : Front: L C R, Side: L R, LFE
Частота : 48,0 КГц
Битовая глубина : 16 бит
Метод сжатия : С потерями
Размер потока : 296 Мбайт (13%)
Выравнивание : Разделение по промежуткам
Продолжительность промежутка : 42 мс. (1,00 видеокадр)
Время предзагрузки промежутка : 500 ms










Finding Nemo


Год выпуска: 2003
Мировая премьера: 30 мая 2003
Российская премьера: 25 декабря 2003,
Производство: Pixar
Жанр: мультфильм, фэнтези, комедия, приключения, семейный
Продолжительность: 01:40:35
Озвучивание: 1.дублированное
2.профессиональное многоголосое
3.оригинальное

Режиссер: Эндрю Стэнтон, Ли Анкрич

В ролях:Альберт Брукс, Эллен ДеДженерес, Александр Гулд, Уиллем Дефо, Эрик Бана, Эллисон Джэнни, Остин Пендлтон, Стивен Рут, Викки Льюис, Джеффри Раш

Описание: Среди прекрасных тропических морских стихий, в районе Большого барьерного рифа в уединении живет рыба-клоун по имени Марлин. Он растит своего единственного сыночка Немо. Океан и существующие в нем опасности очень страшат Марлина, и он как может ограждает сына от них, но молодой Немо, страдающий излишним любопытством, очень хочет разузнать побольше о таинственном рифе, рядом с которым они живут. Когда Немо по иронии судьбы оказывается вдалеке от дома, да и еще сталкивается с угрозой стать обедом рыбы-танка, Марлин отправляется на поиски сына. Но Марлин, конечно же, понимает, что героический спасатель из него не получится и просит о помощи в поисках, Дори, королевскую синюю рыбу, которая хоть и страдает от того, что почти ничего не помнит, но добрее ее не отыскать во всем безбрежном океане!
Итак, наши герои отправляются в путешествие, в котором их подкарауливают многочисленные трудности и опасности...

КиноПоиск
Оскар, 2004 год
Лучший анимационный фильм

Источник/Качество: HDRip
Формат: AVI
Стандарт разрешения: 720p
Видео кодек: XviD
Аудио кодек: AC3
Видео: 720х392, 23.976 fps, ~1860 kbps
Аудио: AC3 Dolby Digital, 6 ch., 48 kHz, ~448.00 kbps
Аудио #2: AC3 Dolby Digital, 6 ch., 48 kHz, ~448.00 kbps
Аудио #3: AC3 Dolby Digital, 6 ch., 48 kHz, ~448.00 kbps
Субтитры: Отсутствуют

Общее
Полное имя : C:\Коллекция полнометражных мультфильмов студии Pixar\Finding.Nemo.2003.HDTVRip-GUCHO.avi
Формат : AVI
Формат/Информация : Audio Video Interleave
Профиль формата : OpenDML
Размер файла : 2,18 Гбайт
Продолжительность : 1 ч. 40 м.
Общий поток : 3098 Кбит/сек
Программа кодирования : VirtualDubMod 1.5.10.2 (build 2540/release)
Библиотека кодирования : VirtualDubMod build 2540/release

Видео
Идентификатор : 0
Формат : MPEG-4 Visual
Профиль формата : Advanced Simple@L5
Параметр BVOP формата : 2
Параметр QPel формата : Нет
Параметр GMC формата : Без точки перехода
Параметр матрицы формата : Default (H.263)
Идентификатор кодека : XVID
Идентификатор кодека/Подсказка : XviD
Продолжительность : 1 ч. 40 м.
Битрейт : 1860 Кбит/сек
Ширина : 720 пикс.
Высота : 392 пикс.
Соотношение сторон : 16:9
Частота кадров : 23,976 кадр/сек
Цветовое пространство : YUV
Подвыборка цветности : 4:2:0
Битовая глубина : 8 бит
Тип развёртки : Прогрессивная
Метод сжатия : С потерями
Бит/(Пиксели*Кадры) : 0.275
Размер потока : 1,31 Гбайт (60%)
Библиотека кодирования : XviD 1.2.1 (UTC 2008-12-04)

Аудио #1
Идентификатор : 1
Формат : AC-3
Формат/Информация : Audio Coding 3
Расширение режима : CM (complete main)
Идентификатор кодека : 2000
Продолжительность : 1 ч. 40 м.
Вид битрейта : Постоянный
Битрейт : 448 Кбит/сек
Канал(ы) : 6 канала(ов)
Расположение каналов : Front: L C R, Side: L R, LFE
Частота : 48,0 КГц
Битовая глубина : 16 бит
Метод сжатия : С потерями
Размер потока : 322 Мбайт (14%)
Выравнивание : Разделение по промежуткам
Продолжительность промежутка : 42 мс. (1,00 видеокадр)
Время предзагрузки промежутка : 500 ms

Аудио #2
Идентификатор : 2
Формат : AC-3
Формат/Информация : Audio Coding 3
Расширение режима : CM (complete main)
Идентификатор кодека : 2000
Продолжительность : 1 ч. 40 м.
Вид битрейта : Постоянный
Битрейт : 384 Кбит/сек
Канал(ы) : 6 канала(ов)
Расположение каналов : Front: L C R, Side: L R, LFE
Частота : 48,0 КГц
Битовая глубина : 16 бит
Метод сжатия : С потерями
Размер потока : 276 Мбайт (12%)
Выравнивание : Разделение по промежуткам
Продолжительность промежутка : 42 мс. (1,00 видеокадр)
Время предзагрузки промежутка : 500 ms

Аудио #3
Идентификатор : 3
Формат : AC-3
Формат/Информация : Audio Coding 3
Расширение режима : CM (complete main)
Идентификатор кодека : 2000
Продолжительность : 1 ч. 40 м.
Вид битрейта : Постоянный
Битрейт : 384 Кбит/сек
Канал(ы) : 6 канала(ов)
Расположение каналов : Front: L C R, Side: L R, LFE
Частота : 48,0 КГц
Битовая глубина : 16 бит
Метод сжатия : С потерями
Размер потока : 276 Мбайт (12%)
Выравнивание : Разделение по промежуткам
Продолжительность промежутка : 42 мс. (1,00 видеокадр)
Время предзагрузки промежутка : 500 ms









The Incredibles


Год выпуска: 2004
Мировая премьера: 27 октября 2004
Российская премьера: 23 декабря 2004
Производство: Pixar
Жанр: мультфильм, фэнтези, комедия, приключения, семейный
Продолжительность: 01:55:25
Озвучивание: 1. дублированное
2. авторское (Гоблин)
3. оригинальное

Режиссер:Брэд Бёрд/Brad Bird

В ролях:Крэйг Т. Нельсон, Холли Хантер, Сэмюэл Л. Джексон, Джейсон Ли, Доминик Луис, Тедди Ньютон, Жан Синсере, Эли Фучиле

Описание: История семьи супергероев, члены которой уже отошли от больших дел и предпочитают жить непримечательной жизнью обычных землян. В прошлом все они обладали сверхъестественными способностями и относительно легко справлялись с мировым злом. Но в один прекрасный день папаше и его домочадцам приходится вновь облачиться в прорезиненные костюмы супергероев (а для этого нужно срочно сбросить лишние килограммы!) и в очередной раз спасти человечество от таинственного злодея...

КиноПоиск
Оскар, 2005 год
Лучший анимационный фильм
Лучший монтаж звука

Источник/Качество: HDRip
Формат: AVI
Стандарт разрешения: 720p
Видео кодек: XviD
Аудио кодек: AC3
Видео: 720x304, 23.976 fps, ~1415 kbps
Аудио: AC3 Dolby Digital, 6 ch., 48 kHz, ~384.00 kbps
Аудио #2: AC3 Dolby Digital, 6 ch., 48 kHz, ~384.00 kbps
Аудио #3: AC3 Dolby Digital, 6 ch., 48 kHz, ~384.00 kbps
Субтитры: Отсутствуют

Общее
Полное имя : C:\Коллекция полнометражных мультфильмов студии Pixar\The.Incredibles.2004.HDRip-GUCHO.avi
Формат : AVI
Формат/Информация : Audio Video Interleave
Профиль формата : OpenDML
Размер файла : 2,19 Гбайт
Продолжительность : 1 ч. 55 м.
Общий поток : 2719 Кбит/сек
Программа кодирования : VirtualDubMod 1.5.10.2 (build 2540/release)
Библиотека кодирования : VirtualDubMod build 2540/release

Видео
Идентификатор : 0
Формат : MPEG-4 Visual
Профиль формата : Advanced Simple@L5
Параметр BVOP формата : 1
Параметр QPel формата : Нет
Параметр GMC формата : Без точки перехода
Параметр матрицы формата : Выборочная
Идентификатор кодека : XVID
Идентификатор кодека/Подсказка : XviD
Продолжительность : 1 ч. 55 м.
Битрейт : 1416 Кбит/сек
Ширина : 720 пикс.
Высота : 304 пикс.
Соотношение сторон : 2,35:1
Частота кадров : 23,976 кадр/сек
Цветовое пространство : YUV
Подвыборка цветности : 4:2:0
Битовая глубина : 8 бит
Тип развёртки : Прогрессивная
Метод сжатия : С потерями
Бит/(Пиксели*Кадры) : 0.270
Размер потока : 1,14 Гбайт (52%)
Библиотека кодирования : XviD 61

Аудио #1
Идентификатор : 1
Формат : AC-3
Формат/Информация : Audio Coding 3
Расширение режима : CM (complete main)
Идентификатор кодека : 2000
Продолжительность : 1 ч. 55 м.
Вид битрейта : Постоянный
Битрейт : 384 Кбит/сек
Канал(ы) : 6 канала(ов)
Расположение каналов : Front: L C R, Side: L R, LFE
Частота : 48,0 КГц
Битовая глубина : 16 бит
Метод сжатия : С потерями
Размер потока : 317 Мбайт (14%)
Выравнивание : Разделение по промежуткам
Продолжительность промежутка : 42 мс. (1,00 видеокадр)
Время предзагрузки промежутка : 500 ms

Аудио #2
Идентификатор : 2
Формат : AC-3
Формат/Информация : Audio Coding 3
Расширение режима : CM (complete main)
Идентификатор кодека : 2000
Продолжительность : 1 ч. 55 м.
Вид битрейта : Постоянный
Битрейт : 448 Кбит/сек
Канал(ы) : 6 канала(ов)
Расположение каналов : Front: L C R, Side: L R, LFE
Частота : 48,0 КГц
Битовая глубина : 16 бит
Метод сжатия : С потерями
Размер потока : 370 Мбайт (16%)
Выравнивание : Разделение по промежуткам
Продолжительность промежутка : 42 мс. (1,00 видеокадр)
Время предзагрузки промежутка : 500 ms

Аудио #3
Идентификатор : 3
Формат : AC-3
Формат/Информация : Audio Coding 3
Расширение режима : CM (complete main)
Идентификатор кодека : 2000
Продолжительность : 1 ч. 55 м.
Вид битрейта : Постоянный
Битрейт : 448 Кбит/сек
Канал(ы) : 6 канала(ов)
Расположение каналов : Front: L C R, Side: L R, LFE
Частота : 48,0 КГц
Битовая глубина : 16 бит
Метод сжатия : С потерями
Размер потока : 370 Мбайт (16%)
Выравнивание : Разделение по промежуткам
Продолжительность промежутка : 42 мс. (1,00 видеокадр)
Время предзагрузки промежутка : 500 ms










Cars


Год выпуска: 2006
Мировая премьера: 14 марта 2006
Российская премьера: 15 июня 2006
Производство: Pixar
Жанр: мультфильм, фэнтези, комедия, приключения, семейный
Продолжительность: 01:56:35
Озвучивание: 1. дублированное
2.оригинальное

Режиссер:Джон Лассетер, Джо Рэнфт/John Lasseter, Joe Ranft

В ролях:Оуэн Уилсон, Пол Ньюман, Бонни Хант, Ларри Кейбл Гай, Чич Марин, Тони Шалхуб, Гуидо Куарони, Дженифер Льюис, Пол Дули, Майкл Уоллис, Джордж Карлин

Описание: Неукротимый в своем желании всегда и во всем побеждать гоночный автомобиль «Молния» Маккуин вдруг обнаруживает, что сбился с пути и застрял в маленьком захолустном городке Радиатор-Спрингс, что находится где-то на трассе 66 в Калифорнии. Участвуя в гонках на Кубок Поршня, где ему противостояли два очень опытных соперника, Маккуин совершенно не ожидал, что отныне ему придется общаться с персонажами совсем иного рода. Это, например, Салли — шикарный Порше 2002-го года выпуска, Док Хадсон — легковушка модели «Хадсон Хорнет», 1951-го года выпуска или Метр — ржавый грузовичок-эвакуатор. И все они помогают Маккуину понять, что в мире существуют некоторые более важные вещи, чем слава, призы и спонсоры...

КиноПоиск

Источник/Качество: HDRip
Формат: AVI
Стандарт разрешения: 720p
Видео кодек: XviD
Аудио кодек: AC3
Видео: 720x304, 23.976 fps, ~1778 kbps
Аудио: AC3 Dolby Digital, 6 ch., 48 kHz, ~448.00 kbps
Аудио #2: AC3 Dolby Digital, 6 ch., 48 kHz, ~448.00 kbps
Субтитры: Отсутствуют

Общее
Полное имя : C:\Коллекция полнометражных мультфильмов студии Pixar\Cars.2006.HDRip-GUCHO.avi
Формат : AVI
Формат/Информация : Audio Video Interleave
Профиль формата : OpenDML
Размер файла : 2,18 Гбайт
Продолжительность : 1 ч. 56 м.
Общий поток : 2682 Кбит/сек
Название фильма : Tachki (2006) BDRip
Режиссёр : KalliostroV
Программа кодирования : VirtualDubModRus 1.5.10.2 (build 2542/release)
Правообладатель : http://forum.hellywood.ru/
Примечание : 25.09.2009

Видео
Идентификатор : 0
Формат : MPEG-4 Visual
Профиль формата : Advanced Simple@L5
Параметр BVOP формата : 1
Параметр QPel формата : Нет
Параметр GMC формата : Без точки перехода
Параметр матрицы формата : Default (MPEG)
Идентификатор кодека : XVID
Идентификатор кодека/Подсказка : XviD
Продолжительность : 1 ч. 56 м.
Битрейт : 1768 Кбит/сек
Ширина : 720 пикс.
Высота : 304 пикс.
Соотношение сторон : 2,35:1
Частота кадров : 23,976 кадр/сек
Цветовое пространство : YUV
Подвыборка цветности : 4:2:0
Битовая глубина : 8 бит
Тип развёртки : Прогрессивная
Метод сжатия : С потерями
Бит/(Пиксели*Кадры) : 0.337
Размер потока : 1,44 Гбайт (66%)
Библиотека кодирования : XviD 1.2.1 (UTC 2008-12-04)

Аудио #1
Идентификатор : 1
Формат : AC-3
Формат/Информация : Audio Coding 3
Расширение режима : CM (complete main)
Идентификатор кодека : 2000
Продолжительность : 1 ч. 56 м.
Вид битрейта : Постоянный
Битрейт : 448 Кбит/сек
Канал(ы) : 6 канала(ов)
Расположение каналов : Front: L C R, Side: L R, LFE
Частота : 48,0 КГц
Битовая глубина : 16 бит
Метод сжатия : С потерями
Размер потока : 374 Мбайт (17%)
Выравнивание : Разделение по промежуткам
Продолжительность промежутка : 42 мс. (1,00 видеокадр)
Время предзагрузки промежутка : 500 ms

Аудио #2
Идентификатор : 2
Формат : AC-3
Формат/Информация : Audio Coding 3
Расширение режима : CM (complete main)
Идентификатор кодека : 2000
Продолжительность : 1 ч. 56 м.
Вид битрейта : Постоянный
Битрейт : 448 Кбит/сек
Канал(ы) : 6 канала(ов)
Расположение каналов : Front: L C R, Side: L R, LFE
Частота : 48,0 КГц
Битовая глубина : 16 бит
Метод сжатия : С потерями
Размер потока : 374 Мбайт (17%)
Выравнивание : Разделение по промежуткам
Продолжительность промежутка : 42 мс. (1,00 видеокадр)

Время предзагрузки промежутка : 500 ms










Ratatouille


Год выпуска: 2007
Мировая премьера: 22 июня 2007
Российская премьера: 28 июня 2007
Производство: Pixar
Жанр: мультфильм, фэнтези, комедия, приключения, семейный
Продолжительность: 01:50:33
Озвучивание: 1.дублированное
2.оригинальное

Режиссер:Брэд Бёрд, Ян Пинкава/Brad Bird, Jan Pinkava

В ролях:Пэттон Освальт, Иэн Холм, Лу Романо, Брайан Деннехи, Питер Сон, Питер О`Тул, Брэд Гэррет, Джанин Гарофало, Уилл Арнетт, Джулиус Каллахан

Описание:Крыс Реми живет в подвале шикарного парижского ресторана и ежедневно рискует жизнью, добывая на кухне кусочки и крошки, оставшиеся от шедевров кулинарного искусства. Но гурману Реми этого мало — он втайне лелеет надежду стать заправским шеф-поваром. Родственники Реми, привыкшие питаться отбросами, корят его за предательство традиций крысиного племени; работники ресторана стараются извести; и только поваренок Лингвини разделяет склонность Реми к несбыточным мечтам.

КиноПоиск
Оскар, 2008 год
Лучший анимационный фильм

Источник/Качество: HDRip
Формат: AVI
Стандарт разрешения: 720p
Видео кодек: XviD
Аудио кодек: AC3
Видео: 720x304, 23.976 fps, ~1919 kbps
Аудио: AC3 Dolby Digital, 6 ch., 48 kHz, ~448.00 kbps
Аудио #2: AC3 Dolby Digital, 6 ch., 48 kHz, ~448.00 kbps
Субтитры: Отсутствуют

Общее
Полное имя : C:\Коллекция полнометражных мультфильмов студии Pixar\Ratatouille.2007.HDRip-GUCHO.avi
Формат : AVI
Формат/Информация : Audio Video Interleave
Профиль формата : OpenDML
Размер файла : 2,18 Гбайт
Продолжительность : 1 ч. 50 м.
Общий поток : 2827 Кбит/сек
Программа кодирования : VirtualDubMod 1.5.10.2 (build 2540/release)
Библиотека кодирования : VirtualDubMod build 2540/release

Видео
Идентификатор : 0
Формат : MPEG-4 Visual
Профиль формата : Advanced Simple@L5
Параметр BVOP формата : 1
Параметр QPel формата : Нет
Параметр GMC формата : Без точки перехода
Параметр матрицы формата : Выборочная
Идентификатор кодека : XVID
Идентификатор кодека/Подсказка : XviD
Продолжительность : 1 ч. 50 м.
Битрейт : 1913 Кбит/сек
Ширина : 720 пикс.
Высота : 304 пикс.
Соотношение сторон : 2,35:1
Частота кадров : 23,976 кадр/сек
Цветовое пространство : YUV
Подвыборка цветности : 4:2:0
Битовая глубина : 8 бит
Тип развёртки : Прогрессивная
Метод сжатия : С потерями
Бит/(Пиксели*Кадры) : 0.365
Размер потока : 1,48 Гбайт (68%)
Библиотека кодирования : XviD 1.2.1 (UTC 2008-12-04)

Аудио #1
Идентификатор : 1
Формат : AC-3
Формат/Информация : Audio Coding 3
Расширение режима : CM (complete main)
Идентификатор кодека : 2000
Продолжительность : 1 ч. 50 м.
Вид битрейта : Постоянный
Битрейт : 448 Кбит/сек
Канал(ы) : 6 канала(ов)
Расположение каналов : Front: L C R, Side: L R, LFE
Частота : 48,0 КГц
Битовая глубина : 16 бит
Метод сжатия : С потерями
Размер потока : 354 Мбайт (16%)
Выравнивание : Разделение по промежуткам
Продолжительность промежутка : 42 мс. (1,00 видеокадр)
Время предзагрузки промежутка : 500 ms

Аудио #2
Идентификатор : 2
Формат : AC-3
Формат/Информация : Audio Coding 3
Расширение режима : CM (complete main)
Идентификатор кодека : 2000
Продолжительность : 1 ч. 50 м.
Вид битрейта : Постоянный
Битрейт : 448 Кбит/сек
Канал(ы) : 6 канала(ов)
Расположение каналов : Front: L C R, Side: L R, LFE
Частота : 48,0 КГц
Битовая глубина : 16 бит
Метод сжатия : С потерями
Размер потока : 354 Мбайт (16%)
Выравнивание : Разделение по промежуткам
Продолжительность промежутка : 42 мс. (1,00 видеокадр)
Время предзагрузки промежутка : 500 ms










WALL-E


Год выпуска: 2008
Мировая премьера: 23 июня 2008
Российская премьера: 3 июля 2008
Производство: Pixar
Жанр: мультфильм, фэнтези, комедия, приключения, семейный
Продолжительность: 01:38:42
Озвучивание: 1. дублированное
2.профессиональное многоголосое (С.Р.И)
3. авторское (Сербин)
4.оригинальное

Режиссер:Эндрю Стэнтон/Andrew Stanton

В ролях:Бен Бертт, Элисса Найт, Джефф Гарлин, Фред Уиллард, Джон Ратценбергер, Кэти Нэджими, Сигурни Уивер

Описание:Робот ВАЛЛ*И из года в год прилежно трудится на опустевшей Земле, очищая нашу планету от гор мусора, которые оставили после себя улетевшие в космос люди. Он и не представляет, что совсем скоро произойдут невероятные события, благодаря которым он встретит друзей, поднимется к звездам и даже сумеет изменить к лучшему своих бывших хозяев, совсем позабывших родную Землю.

КиноПоиск
Оскар, 2009 год
Лучший анимационный фильм

Источник/Качество: HDRip
Формат: AVI
Стандарт разрешения: 720p
Видео кодек: XviD
Аудио кодек: AC3
Видео: 720x304, 23.976 fps, ~1623 kbps
Аудио: AC3 Dolby Digital, 6 ch., 48 kHz, ~384.00 kbps
Аудио #2: AC3 Dolby Digital, 6 ch., 48 kHz, ~384.00 kbps
Аудио #3: AC3 Dolby Digital, 6 ch., 48 kHz, ~384.00 kbps
Аудио #4:AC3 Dolby Digital, 6 ch., 48 kHz, ~384.00 kbps
Субтитры: AC3 Dolby Digital, 6 ch., 48 kHz, ~384.00 kbps

Общее
Полное имя : C:\Коллекция полнометражных мультфильмов студии Pixar\WALL-E.2008.HDRip-GUCHO.avi
Формат : AVI
Формат/Информация : Audio Video Interleave
Профиль формата : OpenDML
Размер файла : 2,18 Гбайт
Продолжительность : 1 ч. 38 м.
Общий поток : 3166 Кбит/сек
Название фильма : ВАЛЛ-И / WALL-E (2008)
Режиссёр : MaLLIeHbKa
Программа кодирования : VirtualDubMod 1.5.10.2 (build 2540/release)
Правообладатель : torrents.ru
Примечание : 14.03.2009

Видео
Идентификатор : 0
Формат : MPEG-4 Visual
Профиль формата : Advanced Simple@L5
Параметр BVOP формата : 1
Параметр QPel формата : Нет
Параметр GMC формата : Без точки перехода
Параметр матрицы формата : Выборочная
Идентификатор кодека : XVID
Идентификатор кодека/Подсказка : XviD
Продолжительность : 1 ч. 38 м.
Битрейт : 1600 Кбит/сек
Ширина : 720 пикс.
Высота : 304 пикс.
Соотношение сторон : 2,35:1
Частота кадров : 23,976 кадр/сек
Цветовое пространство : YUV
Подвыборка цветности : 4:2:0
Битовая глубина : 8 бит
Тип развёртки : Прогрессивная
Метод сжатия : С потерями
Бит/(Пиксели*Кадры) : 0.305
Размер потока : 1,10 Гбайт (51%)
Библиотека кодирования : XviD 1.2.1 (UTC 2008-12-04)

Аудио #1
Идентификатор : 1
Формат : AC-3
Формат/Информация : Audio Coding 3
Расширение режима : CM (complete main)
Идентификатор кодека : 2000
Продолжительность : 1 ч. 38 м.
Вид битрейта : Постоянный
Битрейт : 384 Кбит/сек
Канал(ы) : 6 канала(ов)
Расположение каналов : Front: L C R, Side: L R, LFE
Частота : 48,0 КГц
Битовая глубина : 16 бит
Метод сжатия : С потерями
Размер потока : 271 Мбайт (12%)
Выравнивание : Разделение по промежуткам
Продолжительность промежутка : 42 мс. (1,00 видеокадр)
Время предзагрузки промежутка : 500 ms

Аудио #2
Идентификатор : 2
Формат : AC-3
Формат/Информация : Audio Coding 3
Расширение режима : CM (complete main)
Идентификатор кодека : 2000
Продолжительность : 1 ч. 38 м.
Вид битрейта : Постоянный
Битрейт : 384 Кбит/сек
Канал(ы) : 6 канала(ов)
Расположение каналов : Front: L C R, Side: L R, LFE
Частота : 48,0 КГц
Битовая глубина : 16 бит
Метод сжатия : С потерями
Размер потока : 271 Мбайт (12%)
Выравнивание : Разделение по промежуткам
Продолжительность промежутка : 42 мс. (1,00 видеокадр)
Время предзагрузки промежутка : 500 ms

Аудио #3
Идентификатор : 3
Формат : AC-3
Формат/Информация : Audio Coding 3
Расширение режима : CM (complete main)
Идентификатор кодека : 2000
Продолжительность : 1 ч. 38 м.
Вид битрейта : Постоянный
Битрейт : 384 Кбит/сек
Канал(ы) : 6 канала(ов)
Расположение каналов : Front: L C R, Side: L R, LFE
Частота : 48,0 КГц
Битовая глубина : 16 бит
Метод сжатия : С потерями
Размер потока : 271 Мбайт (12%)
Выравнивание : Разделение по промежуткам
Продолжительность промежутка : 42 мс. (1,00 видеокадр)
Время предзагрузки промежутка : 500 ms

Аудио #4
Идентификатор : 4
Формат : AC-3
Формат/Информация : Audio Coding 3
Расширение режима : CM (complete main)
Идентификатор кодека : 2000
Продолжительность : 1 ч. 38 м.
Вид битрейта : Постоянный
Битрейт : 384 Кбит/сек
Канал(ы) : 6 канала(ов)
Расположение каналов : Front: L C R, Side: L R, LFE
Частота : 48,0 КГц
Битовая глубина : 16 бит
Метод сжатия : С потерями
Размер потока : 271 Мбайт (12%)
Выравнивание : Разделение по промежуткам
Продолжительность промежутка : 42 мс. (1,00 видеокадр)
Время предзагрузки промежутка : 500 ms










Up


Год выпуска: 2009
Мировая премьера: 13 мая 2009
Российская премьера: 28 мая 2009
Производство: Pixar
Жанр: мультфильм, фэнтези, комедия, приключения, семейный
Продолжительность: 01:36:37
Озвучивание: 1.дублированное
2.дублированное (украинский)
3.оригинальное
4. комментарии (русский)

Режиссер:Пит Доктер, Боб Питерсон/Pete Docter, Bob Peterson

В ролях:Эдвард Эснер, Кристофер Пламмер, Джордан Нагаи, Боб Петерсон, Делрой Линдо, Джером Рэнфт, Джон Ратценбергер, Дэвид Кэй, Эли Доктер, Джереми Лири

Описание:78-летний ворчун Карл Фредриксен считает, что жизнь обходит его стороной. Чтобы сдержать обещание, данное своей почившей жене, он решает осуществить свою мечту о великом приключении, привязав тысячи воздушных шариков к своему дому и улетев в дебри Южной Америки. Не пролетев и полмили, путешественник обнаруживает, что он ненароком прихватил с собой крайне разговорчивого и неисправимо жизнерадостного 8-летнего мальчика по имени Рассел...

КиноПоиск
Оскар, 2010 год
Лучший анимационный фильм
Лучший саундтрек

Источник/Качество: HDRip
Формат: AVI
Стандарт разрешения: 720p
Видео кодек: XviD
Аудио кодек: AC3
Видео: 720x400, 23.976 fps, ~1758 kbps
Аудио: AC3 Dolby Digital, 6 ch., 48 kHz, ~448.00 kbps
Аудио #2: AC3 Dolby Digital, 6 ch., 48 kHz, ~448.00 kbps
Аудио #3: AC3 Dolby Digital, 6 ch., 48 kHz, ~448.00 kbps
Аудио #4:AC3 Dolby Digital, 6 ch., 48 kHz, ~448.00 kbps
Субтитры: Отсутствуют

Общее
Полное имя : C:\Коллекция полнометражных мультфильмов студии Pixar\Up.2009.HDRip-GUCHO.avi
Формат : AVI
Формат/Информация : Audio Video Interleave
Профиль формата : OpenDML
Размер файла : 2,18 Гбайт
Продолжительность : 1 ч. 36 м.
Общий поток : 3229 Кбит/сек
Название фильма : Вверх / Up (2009) BDRip
Режиссёр : HITMAN
Программа кодирования : VirtualDubMod 1.5.10.2 (build 2540/release)
Библиотека кодирования : VirtualDubMod build 2540/release
Правообладатель : http://hqclub.net/
Примечание : 30.11.2009

Видео
Идентификатор : 0
Формат : MPEG-4 Visual
Профиль формата : Advanced Simple@L5
Параметр BVOP формата : 1
Параметр QPel формата : Нет
Параметр GMC формата : Без точки перехода
Параметр матрицы формата : Default (MPEG)
Идентификатор кодека : XVID
Идентификатор кодека/Подсказка : XviD
Продолжительность : 1 ч. 36 м.
Битрейт : 1759 Кбит/сек
Ширина : 720 пикс.
Высота : 400 пикс.
Соотношение сторон : 16:9
Частота кадров : 23,976 кадр/сек
Цветовое пространство : YUV
Подвыборка цветности : 4:2:0
Битовая глубина : 8 бит
Тип развёртки : Прогрессивная
Метод сжатия : С потерями
Бит/(Пиксели*Кадры) : 0.255
Размер потока : 1,19 Гбайт (54%)
Библиотека кодирования : XviD 1.2.1 (UTC 2008-12-04)

Аудио #1
Идентификатор : 1
Формат : AC-3
Формат/Информация : Audio Coding 3
Расширение режима : CM (complete main)
Идентификатор кодека : 2000
Продолжительность : 1 ч. 36 м.
Вид битрейта : Постоянный
Битрейт : 448 Кбит/сек
Канал(ы) : 6 канала(ов)
Расположение каналов : Front: L C R, Side: L R, LFE
Частота : 48,0 КГц
Битовая глубина : 16 бит
Метод сжатия : С потерями
Размер потока : 310 Мбайт (14%)
Выравнивание : Разделение по промежуткам
Продолжительность промежутка : 42 мс. (1,00 видеокадр)
Время предзагрузки промежутка : 500 ms

Аудио #2
Идентификатор : 2
Формат : AC-3
Формат/Информация : Audio Coding 3
Расширение режима : CM (complete main)
Идентификатор кодека : 2000
Продолжительность : 1 ч. 36 м.
Вид битрейта : Постоянный
Битрейт : 384 Кбит/сек
Канал(ы) : 6 канала(ов)
Расположение каналов : Front: L C R, Side: L R, LFE
Частота : 48,0 КГц
Битовая глубина : 16 бит
Метод сжатия : С потерями
Размер потока : 265 Мбайт (12%)
Выравнивание : Разделение по промежуткам
Продолжительность промежутка : 42 мс. (1,00 видеокадр)
Время предзагрузки промежутка : 500 ms

Аудио #3
Идентификатор : 3
Формат : AC-3
Формат/Информация : Audio Coding 3
Расширение режима : CM (complete main)
Идентификатор кодека : 2000
Продолжительность : 1 ч. 36 м.
Вид битрейта : Постоянный
Битрейт : 384 Кбит/сек
Канал(ы) : 6 канала(ов)
Расположение каналов : Front: L C R, Side: L R, LFE
Частота : 48,0 КГц
Битовая глубина : 16 бит
Метод сжатия : С потерями
Размер потока : 265 Мбайт (12%)
Выравнивание : Разделение по промежуткам
Продолжительность промежутка : 42 мс. (1,00 видеокадр)
Время предзагрузки промежутка : 500 ms

Аудио #4
Идентификатор : 4
Формат : AC-3
Формат/Информация : Audio Coding 3
Расширение режима : CM (complete main)
Идентификатор кодека : 2000
Продолжительность : 1 ч. 36 м.
Вид битрейта : Постоянный
Битрейт : 224 Кбит/сек
Канал(ы) : 2 канала(ов)
Расположение каналов : Front: L R
Частота : 48,0 КГц
Битовая глубина : 16 бит
Метод сжатия : С потерями
Размер потока : 155 Мбайт (7%)
Выравнивание : Разделение по промежуткам
Продолжительность промежутка : 42 мс. (1,00 видеокадр)
Время предзагрузки промежутка : 500 ms










Toy Story 3


Год выпуска: 2010
Мировая премьера: 12 июня 2010
Российская премьера: 17 июня 2010
Производство: Pixar
Жанр: мультфильм, фэнтези, комедия, приключения, семейный
Продолжительность: 01.43.00
Озвучивание: 1.дублированное
2. оригинальное

Режиссер:Ли Анкрич/Lee Ankrich

В ролях:Том Хэнкс, Тим Аллен, Джоан Кьюсак, Нед Битти, Дон Риклз, Майкл Китон, Уоллес Шоун, Джон Ратценбергер, Эстелль Харрис, Джон Моррис

Описание:Энди почти 18 лет, ему остаётся 3 дня до отправки в колледж, в то время как его игрушки, в том числе Вуди и Базз Лайтер, гадают о своём будущем. Куда забросит их судьба? На чердак, на свалку или, может быть, в детский сад «Солнышко»? События развиваются в самом неожиданном направлении, и приключения полюбившихся героев продолжаются!

КиноПоиск
Оскар, 2011 год
Лучший анимационный фильм
Лучшая песня — «We Belong Together»

Источник/Качество: HDRip
Формат: AVI
Стандарт разрешения: 720p
Видео кодек: XviD
Аудио кодек: AC3
Видео: 720x400, 23.976 fps, ~2133 kbps
Аудио: AC3 Dolby Digital, 6 ch., 48 kHz, ~448.00 kbps
Аудио #2: AC3 Dolby Digital, 6 ch., 48 kHz, ~448.00 kbps
Субтитры: Отсутствуют

Общее
Полное имя : C:\Коллекция полнометражных мультфильмов студии Pixar\Toy.Story.3.2010.HDRip-GUCHO.avi
Формат : AVI
Формат/Информация : Audio Video Interleave
Профиль формата : OpenDML
Размер файла : 2,19 Гбайт
Продолжительность : 1 ч. 43 м.
Общий поток : 3037 Кбит/сек
Название фильма : Istoriya.igrushek.Bolshoj.pobeg (2010) BDRip
Режиссёр : KalliostroV
Программа кодирования : VirtualDubModRus 1.5.10.2 (build 2542/release)
Правообладатель : hqclub.net
Примечание : 25.10.2010

Видео
Идентификатор : 0
Формат : MPEG-4 Visual
Профиль формата : Advanced Simple@L5
Параметр BVOP формата : 1
Параметр QPel формата : Нет
Параметр GMC формата : Без точки перехода
Параметр матрицы формата : Default (MPEG)
Идентификатор кодека : XVID
Идентификатор кодека/Подсказка : XviD
Продолжительность : 1 ч. 43 м.
Битрейт : 2123 Кбит/сек
Ширина : 720 пикс.
Высота : 400 пикс.
Соотношение сторон : 16:9
Частота кадров : 23,976 кадр/сек
Цветовое пространство : YUV
Подвыборка цветности : 4:2:0
Битовая глубина : 8 бит
Тип развёртки : Прогрессивная
Метод сжатия : С потерями
Бит/(Пиксели*Кадры) : 0.307
Размер потока : 1,53 Гбайт (70%)
Библиотека кодирования : XviD 1.2.1 (UTC 2008-12-04)

Аудио #1
Идентификатор : 1
Формат : AC-3
Формат/Информация : Audio Coding 3
Расширение режима : CM (complete main)
Идентификатор кодека : 2000
Продолжительность : 1 ч. 43 м.
Вид битрейта : Постоянный
Битрейт : 448 Кбит/сек
Канал(ы) : 6 канала(ов)
Расположение каналов : Front: L C R, Side: L R, LFE
Частота : 48,0 КГц
Битовая глубина : 16 бит
Метод сжатия : С потерями
Размер потока : 330 Мбайт (15%)
Выравнивание : Разделение по промежуткам
Продолжительность промежутка : 42 мс. (1,00 видеокадр)
Время предзагрузки промежутка : 500 ms

Аудио #2
Идентификатор : 2
Формат : AC-3
Формат/Информация : Audio Coding 3
Расширение режима : CM (complete main)
Идентификатор кодека : 2000
Продолжительность : 1 ч. 43 м.
Вид битрейта : Постоянный
Битрейт : 448 Кбит/сек
Канал(ы) : 6 канала(ов)
Расположение каналов : Front: L C R, Side: L R, LFE
Частота : 48,0 КГц
Битовая глубина : 16 бит
Метод сжатия : С потерями
Размер потока : 330 Мбайт (15%)
Выравнивание : Разделение по промежуткам
Продолжительность промежутка : 42 мс. (1,00 видеокадр)
Время предзагрузки промежутка : 500 ms






Не забывайте говорить Спасибо. Не уходите с раздачи!   
Торрент: Зарегистрирован [23 май 2011, 09:23] Для скачивания .torrent
необходима регистрация
Или скачать с помощью
MediaGet
Статус:
Проверен
 
.torrent скачан: 0 раз
Хэш: 6714f98fd733429e097d0cd3361003d56279e771
Размер: 24.01 ГБ (25 784 709 120 байт)
   Стать Автором раздачи
   
Цитата

Вернуться в Walt Disney Company & Pixar

Кто сейчас на конференции

Сейчас эту тему просматривают: нет зарегистрированных пользователей и гости: 1