Лицей - Концерт у Маргулиса на НТВ [23.12] (2017) HDTV 1080i

 Статистика раздачи 
Размер: 3.22 ГБ   |  Зарегистрирован: 11 фев 2018, 18:45   |   .torrent скачан: 14 раз
Сидеров: 9  [ 0 байт/сек ]     Личеров: 9  [ 0 байт/сек ]  
  
Аватара пользователя
 
Раздал: 62.89 МБ
Скачал: 0 байт
Ратио: Seed.
Сообщения: 25910
Стаж: 7 лет 5 месяцев 23 дня

Исполнитель: Лицей
Жанр: POP, ROCK
Год выпуска: 2017
Продолжительность: 00:56:42
Описание: Концерт группы Лицей в рамках
программы "Квартирник у Маргулиса" на телеканале НТВ.

Отдельная благодарность пользователю kuzmichm2196 за исходник.

Формат: MKV
Качество: HDTV 1080i
Видео кодек: H.264
Аудио кодек: MP2
Видео: H264; 1920x1080 (16:9); 25.000 fps; ~7 561 kb/s
Аудио: MPEG Audio 48000Hz stereo 192 Кбит/сек
1.Субботний вечер
2.Хороший парень
3.Небо
4.Дороги наши разошлись
5.След на воде
6.Мчится время
7.Ты станешь взрослой
8.Лей ливень всю ночь напролет
9.Как ты о нем мечтала
10.Осень
11.Домашний арест
Licey_23.12.17.mkv
Format : Matroska
Format version : Version 4 / Version 2
File size : 3.22 GiB
Duration : 56 min 42 s
Overall bit rate : 8 127 kb/s
Encoded date : UTC 2017-12-24 06:34:23
Writing application : mkvmerge v18.0.0 ('Apricity') 64-bit
Writing library : libebml v1.3.5 + libmatroska v1.4.8

Video
ID : 1
Format : AVC
Format/Info : Advanced Video Codec
Format profile : [email protected]
Format settings : CABAC / 4 Ref Frames
Format settings, CABAC : Yes
Format settings, RefFrames : 4 frames
Codec ID : V_MPEG4/ISO/AVC
Duration : 56 min 42 s
Bit rate : 7 931 kb/s
Width : 1 920 pixels
Height : 1 080 pixels
Display aspect ratio : 16:9
Frame rate mode : Variable
Frame rate : 50.000 FPS
Original frame rate : 25.000 FPS
Standard : Component
Color space : YUV
Chroma subsampling : 4:2:0
Bit depth : 8 bits
Scan type : Interlaced
Scan type, store method : Separated fields
Scan order : Top Field First
Bits/(Pixel*Frame) : 0.076
Stream size : 3.14 GiB (98%)
Default : Yes
Forced : No
Color range : Limited
Color primaries : BT.709
Transfer characteristics : BT.709
Matrix coefficients : BT.709

Audio
ID : 2
Format : MPEG Audio
Format version : Version 1
Format profile : Layer 2
Codec ID : A_MPEG/L2
Codec ID/Hint : MP2
Duration : 56 min 42 s
Bit rate mode : Constant
Bit rate : 192 kb/s
Channel(s) : 2 channels
Sampling rate : 48.0 kHz
Frame rate : 41.667 FPS (1152 SPF)
Compression mode : Lossy
Stream size : 77.9 MiB (2%)
Language : Russian
Default : Yes
Forced : No
   
Торрент: Зарегистрирован [11 фев 2018, 18:45] Скачать торрент Магнет ссылка
Скачать торрент
[ Размер 33.09 КБ / Просмотров 28 ]
Статус:
Проверен
 
.torrent скачан: 14 раз
Размер: 3.22 ГБ (3 456 277 998 байт)
   Стать Автором раздачи
 
 
Цитата

Вернуться в Концерт у Маргулиса

Кто сейчас на конференции

Сейчас эту тему просматривают: нет зарегистрированных пользователей и гости: 1