Бит-квартет Секрет - Концерт у Маргулиса на НТВ [16.12] (2017) HDTVRip

 Статистика раздачи 
Размер: 928.7 МБ   |  Зарегистрирован: 11 фев 2018, 18:45   |   .torrent скачан: 2 раз
Сидеров: 2  [ 0 байт/сек ]     Личеров: 1  [ 0 байт/сек ]  
  
Аватара пользователя
 
Раздал: 62.89 МБ
Скачал: 0 байт
Ратио: Seed.
Сообщения: 23934
Стаж: 7 лет 4 месяца 3 дня

Исполнитель: Бит-квартет Секрет
Жанр: POP, ROCK
Год выпуска: 2017
Продолжительность: 01:01:00
Описание: Концерт бит-квартета Секрет в рамках
программы "Квартирник у Маргулиса" на телеканале НТВ.

Отдельная благодарность пользователю kuzmichm2196 за исходник.

Формат: AVI
Качество: HDTVRip
Видео кодек: DIVX
Аудио кодек: MP3
Видео: DIVX, 720 x 400, ~1 900 Kbps, 25fps
Аудио: MP3, 2 ch, 192 Kbps, 48000Hz

01. Привет
02. Блюз бродячих собак
03. Алиса
04. Именины у Кристины
05. Твой папа был прав
06. Рита
07. Мы любим буги-вуги
08. Она не понимает
09. Сара-барабу
10. Последний час декабря
11. Домой
Sekret_2017.12.16.avi
Format : AVI
Format/Info : Audio Video Interleave
File size : 929 MiB
Duration : 1 h 1 min
Overall bit rate : 2 126 kb/s

Video
ID : 0
Format : MPEG-4 Visual
Format profile : Advanced [email protected]
Format settings : BVOP2
Format settings, BVOP : 2
Format settings, QPel : No
Format settings, GMC : No warppoints
Format settings, Matrix : Default (H.263)
Codec ID : DIVX
Codec ID/Info : Project Mayo
Codec ID/Hint : DivX 4
Duration : 1 h 1 min
Bit rate : 1 920 kb/s
Width : 720 pixels
Height : 400 pixels
Display aspect ratio : 16:9
Frame rate : 25.000 FPS
Color space : YUV
Chroma subsampling : 4:2:0
Bit depth : 8 bits
Scan type : Progressive
Compression mode : Lossy
Bits/(Pixel*Frame) : 0.267
Stream size : 839 MiB (90%)
Writing library : XviD 67

Audio
ID : 1
Format : MPEG Audio
Format version : Version 1
Format profile : Layer 3
Codec ID : 55
Codec ID/Hint : MP3
Duration : 1 h 1 min
Bit rate mode : Constant
Bit rate : 192 kb/s
Channel(s) : 2 channels
Sampling rate : 48.0 kHz
Compression mode : Lossy
Stream size : 83.9 MiB (9%)
Alignment : Aligned on interleaves
Interleave, duration : 24 ms (0.60 video frame)
Writing library : LAME3.99.5UUUU9653q
   
Торрент: Зарегистрирован [11 фев 2018, 18:45] Скачать торрент Магнет ссылка
Скачать торрент
[ Размер 37.16 КБ / Просмотров 19 ]
Статус:
Проверен
 
.torrent скачан: 2 раз
Размер: 928.7 МБ (973 817 668 байт)
   Стать Автором раздачи
 
 
Цитата

Вернуться в Концерт у Маргулиса

Кто сейчас на конференции

Сейчас эту тему просматривают: нет зарегистрированных пользователей и гости: 1