Лолита Милявская - Концерт у Маргулиса на НТВ [16.09] (2017) DVB

 Статистика раздачи 
Размер: 1.11 ГБ   |  Зарегистрирован: 11 фев 2018, 18:43   |   .torrent скачан: 12 раз
Сидеров: 5  [ 0 байт/сек ]     Личеров: 0  [ 0 байт/сек ]  
  
Аватара пользователя
 
Раздал: 62.89 МБ
Скачал: 0 байт
Ратио: Seed.
Сообщения: 25910
Стаж: 7 лет 5 месяцев 26 дней

Исполнитель: Лолита Милявская
Жанр: POP
Год выпуска: 2017
Продолжительность: 00:51:45
Описание: В гости к Евгению Маргулису пришла популярная эстрадная певица Лолита. Она рассказала о своем детстве, образовании, об отношении к рок-н-роллу, поделилась своими эмоциями от знакомства с Rammstein, исполнила свои лучшие хиты, а также преподнесла публике большой сюрприз — новую песню.
Формат: MPG
Качество: DVB
Видео кодек: MPEG-2
Аудио кодек: MP2
Видео: MPEG-2,~2900 Kbps,[email protected] (16:9), 25fps
Аудио: MP2, 2 ch, 128 Kbps, 48000Hz

1.Пошлю его на...
2.Анатомия
3.Таксисты
4.Ты мое море
5.Шпилька-каблучок
6.Провокационный блюз
7.Сон(песня Алексея Романова)
8.На Титанике
9.Посвящается Раневской
Lolita_16.09.17.mpg
Format : MPEG-PS
File size : 1.11 GiB
Duration : 51mn 44s
Overall bit rate mode : Variable
Overall bit rate : 3 068 Kbps

Video
ID : 224 (0xE0)
Format : MPEG Video
Format version : Version 2
Format profile : [email protected]
Format settings, BVOP : Yes
Format settings, Matrix : Custom
Format settings, GOP : M=3, N=12
Format settings, picture structure : Frame
Duration : 51mn 44s
Bit rate mode : Variable
Bit rate : 2 878 Kbps
Maximum bit rate : 3 000 Kbps
Width : 720 pixels
Height : 576 pixels
Display aspect ratio : 16:9
Frame rate : 25.000 fps
Standard : PAL
Color space : YUV
Chroma subsampling : 4:2:0
Bit depth : 8 bits
Scan type : Interlaced
Scan order : Top Field First
Compression mode : Lossy
Bits/(Pixel*Frame) : 0.278
Time code of first frame : 06:15:06:02
Time code source : Group of pictures header
GOP, Open/Closed : Open
Stream size : 1.04 GiB (94%)

Audio
ID : 192 (0xC0)
Format : MPEG Audio
Format version : Version 1
Format profile : Layer 2
Duration : 51mn 44s
Bit rate mode : Constant
Bit rate : 128 Kbps
Channel(s) : 2 channels
Sampling rate : 48.0 KHz
Compression mode : Lossy
Delay relative to video : 145ms
Stream size : 47.4 MiB (4%)
   
Торрент: Зарегистрирован [11 фев 2018, 18:43] Скачать торрент Магнет ссылка
Скачать торрент
[ Размер 45.24 КБ / Просмотров 29 ]
Статус:
Проверен
 
.torrent скачан: 12 раз
Размер: 1.11 ГБ (1 190 547 456 байт)
   Стать Автором раздачи
 
 
Цитата

Вернуться в Концерт у Маргулиса

Кто сейчас на конференции

Сейчас эту тему просматривают: нет зарегистрированных пользователей и гости: 1