Машина времени - Концерт у Маргулиса на НТВ [09.09] (2017) HDTVRip

 Статистика раздачи 
Размер: 1.07 ГБ   |  Зарегистрирован: 11 фев 2018, 18:43   |   .torrent скачан: 147 раз
Сидеров: 5  [ 0 байт/сек ]     Личеров: 0  [ 0 байт/сек ]  
  
Аватара пользователя
 
Раздал: 62.89 МБ
Скачал: 0 байт
Ратио: Seed.
Сообщения: 26081
Стаж: 7 лет 7 месяцев 25 дней

Исполнитель: Машина времени
Жанр: ROCK
Год выпуска: 2017
Продолжительность: 01:30:00
Описание: Акустический концерт группы "Машина времени" в рамках
программы "Квартирник у Маргулиса" на телеканале НТВ.

Отдельная благодарность пользователю kuzmichm2196 за исходник.

Формат: AVI
Качество: HDTVRip
Видео кодек: DIVX
Аудио кодек: MP3
Видео: DIVX, 720 x 400, ~1 500 Kbps, 25fps
Аудио: MP3, 2 ch, 192 Kbps, 48000Hz
1. Наш дом
2. За тех, кто в море
3. Синяя птица
4. Поворот
5. Флаг над замком
6. Дорога в небо
7. Пой
8. Брошенный Богом мир
9. Костер
10. Сорок лет тому назад
11. Эти реки никуда не текут
12. Флаг над замком (при участии Алексея Романова)
13. Однажды
14. Марионетки (при участии Алексея Кортнева)
15. Мой друг (лучше всех играет блюз)
16. Ты или я
17. Разговор в поезде
18. Свеча
Mashina_09.09.17.avi
Format : AVI
Format/Info : Audio Video Interleave
File size : 1.07 GiB
Duration : 1h 30mn
Overall bit rate : 1 704 Kbps

Video
ID : 0
Format : MPEG-4 Visual
Format profile : Advanced Simple@L4
Format settings, BVOP : 2
Format settings, QPel : No
Format settings, GMC : No warppoints
Format settings, Matrix : Default (H.263)
Codec ID : DIVX
Codec ID/Info : Project Mayo
Codec ID/Hint : DivX 4
Duration : 1h 30mn
Bit rate : 1 499 Kbps
Width : 720 pixels
Height : 400 pixels
Display aspect ratio : 16:9
Frame rate : 25.000 fps
Color space : YUV
Chroma subsampling : 4:2:0
Bit depth : 8 bits
Scan type : Progressive
Compression mode : Lossy
Bits/(Pixel*Frame) : 0.208
Stream size : 966 MiB (88%)
Writing library : XviD 67

Audio
ID : 1
Format : MPEG Audio
Format version : Version 1
Format profile : Layer 3
Codec ID : 55
Codec ID/Hint : MP3
Duration : 1h 30mn
Bit rate mode : Constant
Bit rate : 192 Kbps
Channel(s) : 2 channels
Sampling rate : 48.0 KHz
Compression mode : Lossy
Stream size : 124 MiB (11%)
Alignment : Aligned on interleaves
Interleave, duration : 24 ms (0.60 video frame)
Writing library : LAME
Не забывайте говорить Спасибо. Не уходите с раздачи!   
Торрент: Зарегистрирован [11 фев 2018, 18:43] Для скачивания .torrent
необходима регистрация
Или скачать с помощью
MediaGet
Статус:
Проверен
 
.torrent скачан: 147 раз
Размер: 1.07 ГБ (1 151 875 194 байт)
   Стать Автором раздачи
   
Цитата

Вернуться в Концерт у Маргулиса

Кто сейчас на конференции

Сейчас эту тему просматривают: нет зарегистрированных пользователей и гости: 1