David Gilmour - Europejska Stolica Kultury Wroclaw 2016 [2016, Progressive rock/Psychedelic rock/Art rock/Ambient/Blues rock, HDTV, 1080i]

 Статистика раздачи 
Размер: 2.81 ГБ   |  Зарегистрирован: 11 фев 2018, 18:41   |   .torrent скачан: 5697 раз
Сидеров: 19  [ 0 байт/сек ]     Личеров: 7  [ 0 байт/сек ]  
  
Аватара пользователя
Главный редактор
Главный редактор
Я на сайте
 
Раздал: 48.27 ТБ
Скачал: 2.53 ТБ
Ратио: 19.523
Сообщения: 133406
Стаж: 7 лет 10 месяцев 28 дней
Откуда: Санкт-Петербург

David Gilmour - Europejska Stolica Kultury Wroclaw 2016
Жанр: Progressive rock/Psychedelic rock/Art rock/Ambient/Blues rock
Продолжительность: 01:11:01
Год выпуска: 2016
Описание: Выступление британского rock музыканта, автора и исполнителя, мультиинструменталиста и музыкального продюсера Дэвида Гилмора в польском Вроцлаве june 25, 2016
Доп. информация: Собственная запись со спутникового канала TVP2 june 25, 2016
Треклист: 5 A.M.
Rattle That Lock
Faces of Stone
Wish You Were Here
What Do You Want From Me
A Boat Lies Waiting
The Blue
Money
Us and Them
In Any Tongue
High Hopes
Качество: HDTV
Разрешение видео/развертка: 1080i
Контейнер: TS
Видео кодек: H.264
Аудио кодек: AC3
Видео: Mpeg-4 AVC, 1920x1080, 4800 kbps, 25 fps
Аудио: AC3, 384 kbps, 48 kHz, stereo
Аудио 2: MP2, 192 kbps, 48 kHz, stereo
Код: Выделить всё
General
ID                                       : 1 (0x1)
Complete name                            : E:\Downloads\David Gilmour - Europejska Stolica Kultury Wroclaw 2016.ts
Format                                   : MPEG-TS
File size                                : 2.81 GiB
Duration                                 : 1h 11mn
Overall bit rate mode                    : Variable
Overall bit rate                         : 5 664 Kbps
Video
ID                                       : 1539 (0x603)
Menu ID                                  : 3116 (0xC2C)
Format                                   : AVC
Format/Info                              : Advanced Video Codec
Format profile                           : High@L4
Format settings, CABAC                   : Yes
Format settings, ReFrames                : 3 frames
Codec ID                                 : 27
Duration                                 : 1h 11mn
Bit rate                                 : 4 802 Kbps
Width                                    : 1 920 pixels
Height                                   : 1 080 pixels
Display aspect ratio                     : 16:9
Frame rate                               : 25.000 fps
Standard                                 : Component
Color space                              : YUV
Chroma subsampling                       : 4:2:0
Bit depth                                : 8 bits
Scan type                                : Interlaced
Scan order                               : Top Field First
Bits/(Pixel*Frame)                       : 0.093
Stream size                              : 2.38 GiB (85%)
Color range                              : Limited
Color primaries                          : BT.709
Transfer characteristics                 : BT.709
Matrix coefficients                      : BT.709
Audio #1
ID                                       : 1540 (0x604)
Menu ID                                  : 3116 (0xC2C)
Format                                   : AC-3
Format/Info                              : Audio Coding 3
Mode extension                           : CM (complete main)
Format settings, Endianness              : Big
Codec ID                                 : 6
Duration                                 : 1h 11mn
Bit rate mode                            : Constant
Bit rate                                 : 384 Kbps
Channel(s)                               : 2 channels
Channel positions                        : Front: L R
Sampling rate                            : 48.0 KHz
Compression mode                         : Lossy
Delay relative to video                  : -80ms
Stream size                              : 195 MiB (7%)
Language                                 : org
Audio #2
ID                                       : 1541 (0x605)
Menu ID                                  : 3116 (0xC2C)
Format                                   : MPEG Audio
Format version                           : Version 1
Format profile                           : Layer 2
Codec ID                                 : 3
Duration                                 : 1h 11mn
Bit rate mode                            : Constant
Bit rate                                 : 192 Kbps
Channel(s)                               : 2 channels
Sampling rate                            : 48.0 KHz
Compression mode                         : Lossy
Delay relative to video                  : -80ms
Stream size                              : 97.5 MiB (3%)
Language                                 : Polish
Text #1
ID                                       : 1542 (0x606)-100
Menu ID                                  : 3116 (0xC2C)
Format                                   : Teletext
Language                                 : Polish
Text #2
ID                                       : 1542 (0x606)-753
Menu ID                                  : 3116 (0xC2C)
Format                                   : Teletext Subtitle
Language                                 : Polish
Menu
ID                                       : 33 (0x21)
Menu ID                                  : 3116 (0xC2C)
Duration                                 : 1h 11mn
List                                     : 1539 (0x603) (AVC) / 1540 (0x604) (AC-3, org) / 1541 (0x605) (MPEG Audio, Polish) / 1542 (0x606) ()
Language                                 :  / org / Polish
Не забывайте говорить Спасибо. Не уходите с раздачи!   
Торрент: Зарегистрирован [11 фев 2018, 18:41] Для скачивания .torrent
необходима регистрация
Или скачать с помощью
MediaGet
Статус:
Проверен
 
.torrent скачан: 5697 раз
Размер: 2.81 ГБ (3 016 868 712 байт)
   Стать Автором раздачи
   
Цитата

Вернуться в Rock

Кто сейчас на конференции

Сейчас эту тему просматривают: нет зарегистрированных пользователей и гости: 1