Tenchi Muyou! Ryououki Dai Yon-ki / Тэнти - лишний! Рё-о-ки 4 [2016, OVA, 4ep] BDRip 720p raw

 Статистика раздачи 
Размер: 2.98 ГБ   |  Зарегистрирован: 28 дек 2017, 08:35   |   .torrent скачан: 2 раз
Сидеров: 55  [ 0 байт/сек ]     Личеров: 2  [ 0 байт/сек ]  
  
Аватара пользователя
 
Раздал: 1.27 ТБ
Скачал: 3.51 ГБ
Ратио: 369.915
Сообщения: 49707
Стаж: 11 месяцев

天地無用! 魎皇鬼 第四期
Tenchi Muyou! Ryououki Dai Yon-ki
Тэнти - лишний! Рё-о-ки 4

Жанр: приключения
Тип: OVA
Продолжительность: 4 эп. по 30 мин.
Период выхода: c 30.11.2016 по 13.09.2017
Производство: AIC
Автор оригинала: Кадзисима Масаки / Kajishima Masaki / 梶島正樹
Режиссер: Кадзисима Масаки / Kajishima Masaki / 梶島正樹
Формат: MKV BDRip
Видео: H264 [email protected] 23,976fps 1280*720 ~3300kbps
Аудио JP: Vorbis 2.0 48000Hz ~256kbps
Субтитры: Русские (внешние ASS)
Перевод: Вадим Кузьмин


Описание:
Четвертая часть рассказывает о свадьбе отца Тенти и рождении Кэнси.
1. The Night-Before Party
2. The Fate of the Masakis
3. Vows And Desires
4. A Good Day to Set Out


Код: выделить все
Общее
Уникальный идентификатор                 : 234277524314012733680187530778030646233 (0xB04035BE73DFE344B912E2C7EEB823D9)
Полное имя                               : [catBazilio-raws] Tenchi Muyo! Ryo-Ohki Dai Yon-ki 01 [BDrip 1280x720 x264 Vorbis].mkv
Формат                                   : Matroska
Версия формата                           : Version 4 / Version 2
Размер файла                             : 761 Мбайт
Продолжительность                        : 28 м. 59 с.
Режим общего битрейта                    : Переменный
Общий поток                              : 3671 Кбит/сек
Дата кодирования                         : UTC 2017-12-02 13:58:16
Программа кодирования                    : mkvmerge v10.0.0 ('To Drown In You') 64bit
Библиотека кодирования                   : libebml v1.3.4 + libmatroska v1.4.5

Видео
Идентификатор                            : 1
Формат                                   : AVC
Формат/Информация                        : Advanced Video Codec
Профиль формата                          : [email protected]
Настройки формата                        : CABAC / 9 Ref Frames
Параметр CABAC формата                   : Да
Параметр RefFrames формата               : 9 кадров
Идентификатор кодека                     : V_MPEG4/ISO/AVC
Продолжительность                        : 28 м. 59 с.
Битрейт                                  : 3342 Кбит/сек
Ширина                                   : 1280 пикселей
Высота                                   : 720 пикселей
Соотношение сторон                       : 16:9
Режим частоты кадров                     : Постоянный
Частота кадров                           : 23,976 (23976/1000) кадра/сек
Цветовое пространство                    : YUV
Субдискретизация насыщенности            : 4:2:0
Битовая глубина                          : 8 бит
Тип развёртки                            : Прогрессивная
Бит/(Пиксели*Кадры)                      : 0.151
Размер потока                            : 693 Мбайт (91%)
Язык                                     : Japanese
Default                                  : Да
Forced                                   : Нет

Аудио
Идентификатор                            : 2
Формат                                   : Vorbis
Параметр Floor формата                   : 1
Идентификатор кодека                     : A_VORBIS
Продолжительность                        : 28 м. 59 с.
Вид битрейта                             : Переменный
Битрейт                                  : 256 Кбит/сек
Каналы                                   : 2 канала
Частота                                  : 48,0 КГц
Метод сжатия                             : С потерями
Размер потока                            : 53,1 Мбайт (7%)
Библиотека кодирования                   : libVorbis 1.1.1/1.1.2 (UTC 2005-03-04)
Язык                                     : Japanese
Default                                  : Да
Forced                                   : Нет

Меню
00:00:00.000                             : en:Prologue
00:01:25.419                             : en:Opening
00:02:58.387                             : en:Part A
00:15:02.235                             : en:Part B
00:27:38.717                             : en:Ending
00:28:38.717                             : en:Preview

   
Торрент: Зарегистрирован [28 дек 2017, 08:35] Скачать торрент Магнет ссылка
Скачать торрент
[ Размер 240.02 КБ / Просмотров 32 ]
Статус:
Проверен
 
.torrent скачан: 2 раз
Размер: 2.98 ГБ (3 197 992 761 байт)
   Стать Автором раздачи
 
 
Цитата
  • Похожие торренты
    Ответы
    Просмотры
    Последнее сообщение

Вернуться в Аниме, Японские мультфильмы

Кто сейчас на конференции

Сейчас эту тему просматривают: нет зарегистрированных пользователей и гости: 1