Александр Заботкин | Супер Premier Pro 2 (2017) [unpacked]

 Статистика раздачи 
Размер: 8.06 ГБ   |  Зарегистрирован: 24 дек 2017, 17:13   |   .torrent скачан: 8673 раз
Сидеров: 6495  [ 12.74 КБ/сек ]     Личеров: 227  [ 0 байт/сек ]  
  
Аватара пользователя
Главный редактор
Главный редактор
 
Раздал: 33.49 ТБ
Скачал: 2.39 ТБ
Ратио: 14.458
Сообщения: 113061
Стаж: 7 лет 7 месяцев 30 дней
Откуда: Санкт-Петербург

Александр Заботкин | Супер Premier Pro 2 (2017) [unpacked]

Автор (режиссер): Александр Заботкин
Производство: VideoSmile
Жанр: Обработка видео

Системные требования:
• Операционная система Microsoft Windows 98/Me/200/XP/Vista/7
• Процессор Pentium II 500 Мгц
• 128 Мб оперативной памяти
• Разрешение экрана 1024x768 с глубиной цвета 16 бит
• Наличие Adobe Flash Player 10

Формат: unpacked

Описание:
Продвинутый курс по монтажу в программе Premiere Pro.
Данный курс состоит из двух блоков – «Теория монтажа» и «Практика монтажа». В первом блоке вы познакомитесь с теоретическими аспектами монтажа, во втором – будете работать в программе и собирать настоящие киношные сцены. По такому же принципу обучают монтажу в New York Film Academy и других ведущих киношколах мира.

Продолжительность: 11:39:12
Качество видео: PCRec

Видео: AVC/H.264, 1920x1080, ~2144 Kbps
Аудио: AAC, 2 ch, 126 Kbps
Код: Выделить всё
General
Complete name               : D:\Александр Заботкин - Супер Premiere Pro 2 (2017)\rs\video\01\02.mp4
Format                      : MPEG-4
Format profile              : Base Media
Codec ID                    : isom (isom/iso2/avc1/mp41)
File size                   : 169 MiB
Duration                    : 10 min 23 s
Overall bit rate            : 2 276 kb/s
Writing application         : Lavf57.2.100

Video
ID                          : 1
Format                      : AVC
Format/Info                 : Advanced Video Codec
Format profile              : [email protected]
Format settings, CABAC      : Yes
Format settings, ReFrames   : 2 frames
Codec ID                    : avc1
Codec ID/Info               : Advanced Video Coding
Duration                    : 10 min 23 s
Bit rate                    : 2 144 kb/s
Width                       : 1 920 pixels
Height                      : 1 080 pixels
Display aspect ratio        : 16:9
Frame rate mode             : Constant
Frame rate                  : 25.000 FPS
Color space                 : YUV
Chroma subsampling          : 4:2:0
Bit depth                   : 8 bits
Scan type                   : Progressive
Bits/(Pixel*Frame)          : 0.041
Stream size                 : 159 MiB (94%)
Color range                 : Limited
Color primaries             : BT.709
Transfer characteristics    : BT.709
Matrix coefficients         : BT.709

Audio
ID                          : 2
Format                      : AAC
Format/Info                 : Advanced Audio Codec
Format profile              : LC
Codec ID                    : 40
Duration                    : 10 min 23 s
Bit rate mode               : Constant
Bit rate                    : 126 kb/s
Channel(s)                  : 2 channels
Channel positions           : Front: L R
Sampling rate               : 44.1 kHz
Frame rate                  : 43.066 FPS (1024 spf)
Compression mode            : Lossy
Stream size                 : 9.33 MiB (6%)
Default                     : Yes
Alternate group             : 1
Теория монтажа

Урок 1.
Составные части фильма

Составные части фильма (кадр, план, сцена, эпизод, часть)

Классификация планов по крупности

Классификация планов по количеству людей в кадре

Урок 2.
Типы склеек

Прямая склейка / Cut

Наплыв / Dissolve

Затемнение / Fade In, Fade Out

Шторка / Wipe

Графика / CG

Урок 3.
Эффект Кулешова

Эффект Кулешова по Хичкоку

Географический эксперимент

Танец

Творимый человек

Урок 4.
Популярные приёмы монтажа

Jump Cut (Временной, композиционный)

Match Cut

Double Cutting

Урок 5.
Линейность события / Continuity

Линейность действия

Линейность реквизита

Линейность звука

Практика монтажа
Урок 1.
Настройка Premiere Pro «под себя»

Creative Cloud

Настройка проекта

Рабочее пространство

Настройка горячих клавиш «под себя»

Синхронизация настроек программы с облаком

Урок 2.
Импорт
материала

Импорт материала

Функция Ingest

Создание Proxy

Урок 3.
Правильная организация проекта

Отбор и сортировка материала (лейблы, метаданные)

Сортировка материала с хлопушкой и монтажными листами

Работа с маркерами

Приём «Подвороваться»

Урок 4.
Продвинутые техники
монтажа

Псевдосклейки

Режим тримминга

Rolling Edit Tool VS Ripple Edit Tool

Быстрое удаление «Чёрных дыр»

Урок 5.
Скрытые возможности панели sequence

Синхронизация треков

Отслеживание дубликатов

Функция Match Frame

Reverse Match Frame

Трёхточечный монтаж

Урок 6.
Синхронизация видео
и аудио

Функции Hide, Relink, Replace

Merge Clips (синхронизация видео и аудио)

Ручная синхронизация по входным меткам

Автоматическая синхронизация по звуку

Урок 7.
Практическое занятие. Монтаж сцены с каноэ

В этом видео вы соберете готовую сцену и на её примере закрепите навыки, полученные в предыдущих уроках.

Приём «Липкое внимание»

Внутрикадровый монтаж

Урок 8.
Экспорт из
Premiere Pro

Форматы и кодеки

Adobe Media Encoder

Вывод OMF и AFF для звукорежиссёра

Урок 9.
Практическое занятие. Монтаж сцены диалога

В этом видео вы научитесь монтировать сцены диалога

Тримминг

Косая склейка

Урок 10.
Продвинутые техники монтажа диалогов

Ось взаимодействия

Правило 180°

Правило 30°

Что такое «Петля»

Урок 11.
Практическое занятие. Монтаж сцены с детективом

В этом видео вы соберёте киношную сцену с детективом.

Эмоциональная кривая сцены

Бинарная сцена

Факторы, влияющие на длину плана

Урок 12.
Параллельный и перекрёстный монтаж

Роль параллельного монтажа

Виды параллельного монтажа

Флешбек, флешфорвард

Примеры из кинофильмов

Урок 13.
Типы
монтажа

Монтаж по крупности

Монтаж по взгляду

Монтаж по движению

Монтаж по направлению движения

Монтаж по фазе

Идеальная схема монтажа диалогов

Баланс кадров

Расстановка акцентов

Урок 14.
Практическое занятие. Собираем музыкальный клип

Собираем музыкальный клип, снятый на несколько камер.

Мультикамерный монтаж в Premiere Pro

Урок 15.
Эффекты и цветокоррекция в Premiere Pro

Вкладка Effect Controls

Трекинг маски

Эффект Film Burn

Создание Zoom Transition

Цветокоррекция (Lumetri Color)

Урок 16.
Работа со скоростью
в Premiere Pro

Создание эффекта Slow Motion

Изменение скорости клипа со сдвигом и без

Межкадровая интерполяция

Расстановка акцентов при помощи изменения скорости

Инструмент Stretch Tool

Урок 17.
Титры
в Premiere Pro

Создание универсальной текстовой заставки

Создание эффектной рукописной надписи

Урок 18.
Профессиональная работа
со звуком

Полезные аудиоэффекты

Аудиопереходы

Правильный способ настройки уровня аудиосигнала

Удаление шума (Adaptive Noise Reduction)

Вкладка Essential Sound

Запись и обработка голоса

Работа Premiere Pro в связке с Audition

Урок 19.
Импорт
и экспорт изображений

Создание стоп-кадра

Функция Export Frame

Импорт PSD-файлов

Урок 20.
Кеинг
и композитинг

Работа Premiere Pro в связке с After Effects

Удаление хромакейного фона

Композитинг финальной сцены

Урок 21.
Практическое занятие.
Монтаж сцены погони

В этом уроке вы соберёте киношную сцену погони

Композитинг шота в After Effects

Финальная цветокоррекция всей сцены

Скриншоты:


Время раздачи: С 10:00 до 00:00 (до появления первых 3-5 скачавших)
   
Торрент: Зарегистрирован [24 дек 2017, 17:13] Скачать торрент Магнет ссылка
Скачать торрент
[ Размер 53.93 КБ / Просмотров 1148 ]
Статус:
Проверен
 
.torrent скачан: 8673 раз
Размер: 8.06 ГБ (8 654 788 785 байт)
   Стать Автором раздачи
 
 
Цитата
  • Похожие торренты
    Ответы
    Просмотры
    Последнее сообщение

Вернуться в Видео и фотосъёмка

Кто сейчас на конференции

Сейчас эту тему просматривают: нет зарегистрированных пользователей и гости: 1