Давид Тухманов - Мой адрес - Советский Союз (1998) [APE|Lossless|image + .cue] <Советская эстрада, Ретро>

 Статистика раздачи 
Размер: 405.5 МБ   |  Зарегистрирован: 23 дек 2017, 08:54   |   .torrent скачан: 0 раз
Сидеров: 0  [ 0 байт/сек ]     Личеров: 1  [ 0 байт/сек ]  
  
Аватара пользователя
 
Раздал: 1.27 ТБ
Скачал: 3.51 ГБ
Ратио: 369.911
Сообщения: 49707
Стаж: 11 месяцев

Давид Тухманов - Мой адрес - Советский Союз (1998)

Жанр: Советская эстрада, Ретро
Издание: Давид Тухманов Self-released
Продолжительность: 01:00:46

Кодек: APE
Битрейт: Lossless
Тип рипа: image + .cue

Треклист:
01. Чистые пруды
02. Восточная песня
03. Мой адрес - Советский Союз
04. Жил - был я
05. Соловьиная роща
06. Как прекрасен этот мир
07. Последняя электричка
08. И не то, чтобы да
09. Я люблю тебя, Россия
10. Не забывай
11. Белый танец
12. Из вагантов
13. Фотографии любимых
14. Эти глаза напротив
15. Напрасные слова
Код: Выделить всё
Exact Audio Copy V1.0 beta 3 from 29. August 2011

Отчёт EAC об извлечении, выполненном 9. июля 2012, 16:15

Давид Тухманов / Мой адрес - Советский Союз

Дисковод: SlimtypeDVD A  DS8A5SH   Adapter: 0  ID: 1

Режим чтения                 : Достоверность
Использование точного потока : Да
Отключение кэша аудио        : Да
Использование указателей C2  : Нет

Коррекция смещения при чтении                     : 6
Способность читать области Lead-in и Lead-out     : Нет
Заполнение пропущенных сэмплов тишиной            : Да
Удаление блоков с тишиной в начале и конце        : Нет
При вычислениях CRC использовались нулевые сэмплы : Да
Интерфейс                                         : Встроенный Win32-интерфейс для Win NT/2000

Выходной формат          : Пользовательский кодировщик
Выбранный битрейт        : 128 kBit/s
Качество                 : Высокий
Добавление ID3-тега      : Нет
Утилита сжатия           : C:\Program Files (x86)\Monkey's Audio\Monkey's Audio.exe
Дополнительные параметры : %source% %dest% -c3000

TOC извлечённого CD

     Трек |   Старт  | Длительность | Начальный сектор | Конечный сектор
    ---------------------------------------------------------------------
       1  |  0:00.00 |    4:43.52   |           0      |      21276
       2  |  4:43.52 |    3:59.55   |       21277      |      39256
       3  |  8:43.32 |    4:38.60   |       39257      |      60166
       4  | 13:22.17 |    4:03.55   |       60167      |      78446
       5  | 17:25.72 |    4:28.43   |       78447      |      98589
       6  | 21:54.40 |    3:54.55   |       98590      |     116194
       7  | 25:49.20 |    4:32.40   |      116195      |     136634
       8  | 30:21.60 |    3:21.50   |      136635      |     151759
       9  | 33:43.35 |    3:57.37   |      151760      |     169571
      10  | 37:40.72 |    4:49.00   |      169572      |     191246
      11  | 42:29.72 |    3:08.08   |      191247      |     205354
      12  | 45:38.05 |    3:08.05   |      205355      |     219459
      13  | 48:46.10 |    4:08.65   |      219460      |     238124
      14  | 52:55.00 |    3:41.22   |      238125      |     254721
      15  | 56:36.22 |    4:17.68   |      254722      |     274064

Характеристики диапазона извлечения и сообщения об ошибках

Выбранный диапазон

     Имя файла C:\Users\Asus\Desktop\Давид Тухманов - Мой адрес - Советский Союз.wav

     Пиковый уровень 97.7 %
     Скорость извлечения 4.6 X
     Качество диапазона 100.0 %
     CRC теста 5B64A53D
     CRC копии 5B64A53D
     Копирование... OK

Ошибок не произошло

AccurateRip: сводка

Трек  1  отсутствует в базе данных
Трек  2  отсутствует в базе данных
Трек  3  отсутствует в базе данных
Трек  4  отсутствует в базе данных
Трек  5  отсутствует в базе данных
Трек  6  отсутствует в базе данных
Трек  7  отсутствует в базе данных
Трек  8  отсутствует в базе данных
Трек  9  отсутствует в базе данных
Трек 10  отсутствует в базе данных
Трек 11  отсутствует в базе данных
Трек 12  отсутствует в базе данных
Трек 13  отсутствует в базе данных
Трек 14  отсутствует в базе данных
Трек 15  отсутствует в базе данных

Ни одного трека нет в базе AccurateRip

Конец отчёта

==== Контрольная сумма отчёта 2D9AC363C1AC8D67E0FA133D3C75984B45B49F34512306F5683A8A509EE541A7 ====
Код: Выделить всё
REM DATE 1998
REM DISCID C70E460F
REM COMMENT "ExactAudioCopy v1.0b3"
PERFORMER "Давид Тухманов"
TITLE "Мой адрес - Советский Союз"
FILE "Давид Тухманов - Мой адрес - Советский Союз.ape" WAVE
  TRACK 01 AUDIO
    TITLE "Чистые пруды"
    PERFORMER "Давид Тухманов"
    INDEX 01 00:00:00
  TRACK 02 AUDIO
    TITLE "Восточная песня"
    PERFORMER "Давид Тухманов"
    INDEX 00 04:41:52
    INDEX 01 04:43:52
  TRACK 03 AUDIO
    TITLE "Мой адрес - Советский Союз"
    PERFORMER "Давид Тухманов"
    INDEX 00 08:41:32
    INDEX 01 08:43:32
  TRACK 04 AUDIO
    TITLE "Жил - был я"
    PERFORMER "Давид Тухманов"
    INDEX 00 13:20:17
    INDEX 01 13:22:17
  TRACK 05 AUDIO
    TITLE "Соловьиная роща"
    PERFORMER "Давид Тухманов"
    INDEX 00 17:23:72
    INDEX 01 17:25:72
  TRACK 06 AUDIO
    TITLE "Как прекрасен этот мир"
    PERFORMER "Давид Тухманов"
    INDEX 00 21:52:40
    INDEX 01 21:54:40
  TRACK 07 AUDIO
    TITLE "Последняя электричка"
    PERFORMER "Давид Тухманов"
    INDEX 00 25:47:20
    INDEX 01 25:49:20
  TRACK 08 AUDIO
    TITLE "И не то, чтобы да"
    PERFORMER "Давид Тухманов"
    INDEX 00 30:19:60
    INDEX 01 30:21:60
  TRACK 09 AUDIO
    TITLE "Я люблю тебя, Россия"
    PERFORMER "Давид Тухманов"
    INDEX 00 33:41:35
    INDEX 01 33:43:35
  TRACK 10 AUDIO
    TITLE "Не забывай"
    PERFORMER "Давид Тухманов"
    INDEX 00 37:38:72
    INDEX 01 37:40:72
  TRACK 11 AUDIO
    TITLE "Белый танец"
    PERFORMER "Давид Тухманов"
    INDEX 00 42:27:72
    INDEX 01 42:29:72
  TRACK 12 AUDIO
    TITLE "Из вагантов"
    PERFORMER "Давид Тухманов"
    INDEX 00 45:36:05
    INDEX 01 45:38:05
  TRACK 13 AUDIO
    TITLE "Фотографии любимых"
    PERFORMER "Давид Тухманов"
    INDEX 00 48:44:10
    INDEX 01 48:46:10
  TRACK 14 AUDIO
    TITLE "Эти глаза напротив"
    PERFORMER "Давид Тухманов"
    INDEX 00 52:53:00
    INDEX 01 52:55:00
  TRACK 15 AUDIO
    TITLE "Напрасные слова"
    PERFORMER "Давид Тухманов"
    INDEX 00 56:34:22
    INDEX 01 56:36:22
Код: Выделить всё
-----------------------

DON'T MODIFY THIS FILE

-----------------------

PERFORMER: auCDtect Task Manager, ver. 1.6.0 RC1 build 1.6.0.1
Copyright (c) 2008-2010 y-soft. All rights reserved
[url=http://y-soft.org]http://y-soft.org[/url]

ANALYZER: auCDtect: CD records authenticity detector, version 0.8.2
Copyright (c) 2004 Oleg Berngardt. All rights reserved.
Copyright (c) 2004 Alexander Djourik. All rights reserved.

FILE: Давид Тухманов - Мой адрес - Советский Союз.ape
  Size: 405059416 Hash: 79A023154355980F535F989CC5FEA416 Accuracy: -m0
  Conclusion: CDDA 100%
  Signature: B724500B672099A2D4E1F5C68993E61EC7A34599
Время раздачи: 24/7 (до появления первых 3-5 скачавших)
   
Торрент: Зарегистрирован [23 дек 2017, 08:54] Сhanson Скачать торрент Магнет ссылка
Скачать торрент
[ Размер 17.28 КБ / Просмотров 4 ]
Статус:
Проверен
 
.torrent скачан: 0 раз
Размер: 405.5 МБ (425 202 537 байт)
   Стать Автором раздачи
 
 
Цитата

Вернуться в Сhanson

Кто сейчас на конференции

Сейчас эту тему просматривают: нет зарегистрированных пользователей и гости: 1