Петросян-Шоу (2017.12.22) SATRip (выпуск 19)

 Статистика раздачи 
Размер: 1.32 ГБ   |  Зарегистрирован: 22 дек 2017, 19:10   |   .torrent скачан: 3 раз
Сидеров: 11  [ 0 байт/сек ]     Личеров: 5  [ 0 байт/сек ]  
  
Аватара пользователя
 
Раздал: 3.35 ТБ
Скачал: 63.98 ГБ
Ратио: 53.662
Сообщения: 197088
Стаж: 1 год 7 месяцев 27 дней
СообщениеДобавлено: 22 дек 2017, 18:33


Петросян-Шоу (2017.12.22) SATRip (выпуск 19)

Телекомпания: Россия
Жанр: Юмор

Описание:
Сегодня в гости к Евгению Петросяну вновь придут его друзья и коллеги.
Максим Галкин продемонстрирует мастерство пародии.
Сергей Дроботенко прочитает свой фельетон и исполнит "зримую" песню, посвященную одному из участников шоу.
Лион Измайлов продолжит рубрику "Песенка-забава", Обид Асомов расскажет восточные истории, а Святослав Ещенко разыграет моносценку, которую когда-то исполнял сам Петросян.
Артисты театра "Кривое зеркало" в рубрике "Музыкальная юмористика" дружным хором исполнят песни на весьма актуальные и всем знакомые темы.
Иллюзионист Павел Карахтанов представит рубрику "Веселые фокусы".
Завершит программу большой музыкальный номер, где уже знакомые пародисты – Андрей Баринов, Гера Леви, Алексей Егоров и Василий Динов - покажут звезд отечественной эстрады.

Релиз от: -=DeMoH=-
Продолжительность: 01:34:30
Качество видео: SATRip
Субтитры: Отсутствуют
Реклама: Присутствуют вставки текстовой рекламы

Видео: MPEG4, XviD, 720x400 (16:9), 25.000 fps, 1 800 Kbps (0.250 bit/pixel)
Аудио: AC-3, 48.0 KHz, 2 ch, 192 Kbps, CBR
Код: выделить все Общее
Полное имя                               : D:\[1]\Петросян-Шоу\Петросян-Шоу. Выпуск 19 (2017.12.22).avi
Формат                                   : AVI
Формат/Информация                        : Audio Video Interleave
Размер файла                             : 1,32 Гбайт
Продолжительность                        : 1 ч. 34 м.
Общий поток                              : 2001 Кбит/сек
Программа кодирования                    : VirtualDubMod 1.5.10.3 | www.virtualdub-fr.org || (build 2550/release)
Библиотека кодирования                   : VirtualDubMod build 2550/release

Видео
Идентификатор                            : 0
Формат                                   : MPEG-4 Visual
Профиль формата                          : Advanced Simple@L5
Параметр BVOP формата                    : 2
Параметр QPel формата                    : Нет
Параметр GMC формата                     : Без точки перехода
Параметр матрицы формата                 : Default (H.263)
Идентификатор кодека                     : XVID
Идентификатор кодека/Подсказка           : XviD
Продолжительность                        : 1 ч. 34 м.
Битрейт                                  : 1800 Кбит/сек
Ширина                                   : 720 пикселей
Высота                                   : 400 пикселей
Соотношение сторон                       : 16:9
Частота кадров                           : 25,000 кадров/сек
Цветовое пространство                    : YUV
Субдискретизация насыщенности            : 4:2:0
Битовая глубина                          : 8 бит
Тип развёртки                            : Прогрессивная
Метод сжатия                             : С потерями
Бит/(Пиксели*Кадры)                      : 0.250
Размер потока                            : 1,19 Гбайт (90%)
Библиотека кодирования                   : XviD 1.2.1 (UTC 2008-12-04)

Аудио
Идентификатор                            : 1
Формат                                   : AC-3
Формат/Информация                        : Audio Coding 3
Расширение режима                        : CM (complete main)
Параметр Endianness формата              : Big
Идентификатор кодека                     : 2000
Продолжительность                        : 1 ч. 34 м.
Вид битрейта                             : Постоянный
Битрейт                                  : 192 Кбит/сек
Каналы                                   : 2 канала
Расположение каналов                     : Front: L R
Частота                                  : 48,0 КГц
Битовая глубина                          : 16 бит
Метод сжатия                             : С потерями
Размер потока                            : 130 Мбайт (10%)
Выравнивание                             : Разделение по промежуткам
Продолжительность промежутка             : 40  мс. (1,00 видеокадр)
Время предзагрузки промежутка            : 500  мс.
 

Скриншоты:



Время раздачи: 24/7. До первых 5 скачавших.
Не забывайте говорить Спасибо. Не уходите с раздачи!   
Торрент: Зарегистрирован [22 дек 2017, 19:10] Для скачивания .torrent
необходима регистрация
Или скачать с помощью
MediaGet
Статус:
Проверен
 
.torrent скачан: 3 раз
Хэш: 09268317fd5d960c78a385223a1287ddda15152b
Размер: 1.32 ГБ (1 418 491 904 байт)
   Стать Автором раздачи
   
Цитата

Вернуться в Сатирики и юмористы

Кто сейчас на конференции

Сейчас эту тему просматривают: нет зарегистрированных пользователей и гости: 1