На районе (2017) WEBRip [H.264/1080p-LQ] [Тизер]

 Статистика раздачи 
Размер: 20.51 МБ   |  Зарегистрирован: 20 дек 2017, 19:04   |   .torrent скачан: 23330 раз
Сидеров: 23  [ 0 байт/сек ]     Личеров: 2  [ 0 байт/сек ]  
  
Аватара пользователя
 
Раздал: 1.65 ТБ
Скачал: 4.12 ГБ
Ратио: 410.215
Сообщения: 105977
Стаж: 1 год 1 месяц 1 день
СообщениеДобавлено: 20 дек 2017, 15:21


На районе (2017) WEBRip [H.264/1080p-LQ] [Тизер]

Производство: Россия
Жанр: Драма

Режиссер: Ольга Зуева
Продюсер: Рубен Дишдишян, Данила Козловский, Сергей Бобза
Актеры: Данила Козловский, Илья Маланин, Елена Оболенская, Ангелина Стречина, Ольга Зуева, Андрей Амшинский, Эдгар Гизатуллин, Александр Мизев, Владимир Хацкевич, Владимир Афанасьев

Описание:
Не найдя себе толкового пристанища в жизни, Вова и его лучший друг по прозвищу Киса работают на городского криминального авторитета. Они выполняют для него разные поручения — разбираются с конкурентами и незадачливыми должниками, а также шпионят за девушкой босса. Но чем дольше друзья работают на бандитов, тем больше задумываются о своем месте в жизни и о том, что их ждет в будущем. Вова решает вырваться из криминального мира, в то время как Киса начинает находить в своей работе все новые и новые плюсы. Однажды Вова отказывается выполнять очередное задание, что ставит под угрозу не только его отношения с другом, но и собственную жизнь.


Возраст: 16+ (зрителям, достигшим 16 лет)
Дата российской премьеры: 27 сентября 2018, «Каропрокат»

Продолжительность: 00:01:02
Качество видео: WEBRip
Перевод: Не требуется (русский)
Субтитры: Отсутствуют

Видео: AVC/H.264, 1920x1080 (16:9), ~2525 Kbps
Аудио: AC3, 2 ch, 192 Kbps
Код: Выделить всё
Общее
Уникальный идентификатор                 : 190420807272260585217129488079977542529 (0x8F41B6A65D0689AD04A8C9F165197381)
Полное имя                               : F:\На районе.mkv
Формат                                   : Matroska
Версия формата                           : Version 4 / Version 2
Размер файла                             : 20,5 Мбайт
Продолжительность                        : 1 м. 2 с.
Общий поток                              : 2770 Кбит/сек
Программа кодирования                    : Lavf57.71.100
Библиотека кодирования                   : Lavf57.71.100
ErrorDetectionType                       : Per level 1

Видео
Идентификатор                            : 1
Формат                                   : AVC
Формат/Информация                        : Advanced Video Codec
Профиль формата                          : [email protected]
Настройки формата                        : CABAC / 2 Ref Frames
Параметр CABAC формата                   : Да
Параметр RefFrames формата               : 2 кадра
Идентификатор кодека                     : V_MPEG4/ISO/AVC
Продолжительность                        : 1 м. 2 с.
Битрейт                                  : 2523 Кбит/сек
Ширина                                   : 1920 пикселей
Высота                                   : 1080 пикселей
Соотношение сторон                       : 16:9
Режим частоты кадров                     : Постоянный
Частота кадров                           : 24,000 кадра/сек
Цветовое пространство                    : YUV
Субдискретизация насыщенности            : 4:2:0
Битовая глубина                          : 8 бит
Тип развёртки                            : Прогрессивная
Бит/(Пиксели*Кадры)                      : 0.051
Размер потока                            : 18,7 Мбайт (91%)
Default                                  : Да
Forced                                   : Нет
Цветовой диапазон                        : Limited
Основные цвета                           : BT.709
Характеристики трансфера                 : BT.709
Коэффициенты матрицы                     : BT.709

Аудио
Идентификатор                            : 2
Формат                                   : AC-3
Формат/Информация                        : Audio Coding 3
Идентификатор кодека                     : A_AC3
Продолжительность                        : 1 м. 2 с.
Вид битрейта                             : Постоянный
Битрейт                                  : 192 Кбит/сек
Каналы                                   : 2 канала
Расположение каналов                     : Front: L R
Частота                                  : 44,1 КГц
Частота кадров                           : 28,711 кадров/сек (1536 SPF)
Битовая глубина                          : 16 бит
Метод сжатия                             : С потерями
Задержка видео                           : -41 мс.
Размер потока                            : 1,42 Мбайт (7%)
Язык                                     : Russian
ServiceKind/String                       : Complete Main
Default                                  : Да
Forced                                   : Нет

Скриншоты:




Время раздачи: 24/7 (круглосуточно) (до появления первых 3-5 скачавших)
   
Торрент: Зарегистрирован [20 дек 2017, 19:04] Скачать торрент Магнет ссылка
Скачать торрент
[ Размер 7.19 КБ / Просмотров 15 ]
Статус:
Проверен
 
.torrent скачан: 23330 раз
Размер: 20.51 МБ (21 510 441 байт)
   Стать Автором раздачи
 
 
Цитата
  • Похожие торренты
    Ответы
    Просмотры
    Последнее сообщение

Вернуться в Трейлеры и доп.материалы к новинкам

Кто сейчас на конференции

Сейчас эту тему просматривают: нет зарегистрированных пользователей и гости: 1