Физрук [S03] (2016) SATRip-AVC от Vovan366

 Статистика раздачи 
Размер: 6.12 ГБ   |  Зарегистрирован: 09 фев 2018, 16:01   |   .torrent скачан: 0 раз
Сидеров: 0  [ 0 байт/сек ]     Личеров: 0  [ 0 байт/сек ]  
  
Аватара пользователя
 
Раздал: 70.17 ГБ
Скачал: 8.1 ГБ
Ратио: 9.632
Сообщения: 6549
Стаж: 8 лет 1 месяц 16 дней
СообщениеДобавлено: 11 май 2016, 17:24


Информация о фильме
Название: Физрук
Год выхода: 2016
Жанр: Комедия
Режиссер: Фёдор Стуков, Сергей Сенцов
В ролях: Дмитрий Нагиев, Александр Гордон, Полина Гренц, Анастасия Панина, Владимир Сычев, Даниил Вахрушев, Андрей Крыжний, Артур Сопельник, Оксана Сидоренко, Карина Мишулина

О фильме:
«Физрук 3 сезон» начинается с того, что с Фомы сняты все обвинения. Оказавшись на свободе, он видит, что жизнь его друзей изменилась: у Психа кризис среднего возраста, Таня строит новые отношения, а Мамаева, лишившись бизнеса отца, сводит концы с концами. Но физрук умеет решать проблемы. Фоме предстоит вернуть «отжатый» бизнес Саше как законной наследнице, завоевать Татьяну, и решить вопрос с гангстабоссом Леной, на стороне которой деньги, связи и армия головорезов. Зато в арсенале Фомы надежная команда, новая невероятная схема, в которой замешаны школа, Татьяна Александровна, друг детства и духовный наставник Миша по кличке «Буддист» и даже президент России. Все вместе они отправятся на поиски истины, счастья и справедливости. У них на всех всего одно заветное желание, и компаньоны уверены, что оно обязательно сбудется.

Выпущено: Россия, ТНТ
Продолжительность: 21 Х ~ 00:25:00
Перевод: Не требуется



Файл
Кодек: х264
Качество: SATRip-AVC
Видео: 720x400 (16:9), 25,000 fps, х264 ~ 1550 kbps avg, 0.281 bit/pixel
Звук: 48,0 kHz, Audio Coding 3, 2 ch, ~192 kbps avg

Общее
Уникальный идентификатор : 232854630900735792392148829369082725264 (0xAF2E2BAEAD17CC928F2AAB7D3B724390)
Полное имя : D:ВидеоFizruk-3. 2016.SATRip(AVC) by Vovan366�6.Fizruk-3. 2016.SATRip(AVC) by Vovan366.mkv
Формат : Matroska
Версия формата : Version 2
Размер файла : 296 Мбайт
Продолжительность : 23 м.
Общий поток : 1744 Кбит/сек
Дата кодирования : UTC 2016-04-11 13:25:00
Программа кодирования : mkvmerge v6.1.0 ('Old Devil') built on Mar 4 2013 09:10:42
Библиотека кодирования : libebml v1.3.0 + libmatroska v1.4.0

Видео
Идентификатор : 1
Формат : AVC
Формат/Информация : Advanced Video Codec
Профиль формата : High@L4.1
Параметр CABAC формата : Да
Параметр ReFrames формата : 8 кадров
Идентификатор кодека : V_MPEG4/ISO/AVC
Продолжительность : 23 м.
Битрейт : 1550 Кбит/сек
Ширина : 720 пикселей
Высота : 400 пикселей
Соотношение сторон : 16:9
Режим частоты кадров : Постоянный
Частота кадров : 25,000 кадров/сек
Цветовое пространство : YUV
Субдискретизация насыщенности : 4:2:0
Битовая глубина : 8 бит
Тип развёртки : Прогрессивная
Бит/(Пиксели*Кадры) : 0.215
Размер потока : 257 Мбайт (87%)
Библиотека кодирования : x264 core 130 r2273 b3065e6
Настройки программы : cabac=1 / ref=8 / deblock=1:-2:-2 / analyse=0x3:0x133 / me=umh / subme=10 / psy=1 / psy_rd=1.00:0.10 / mixed_ref=1 / me_range=32 / chroma_me=1 / trellis=2 / 8x8dct=1 / cqm=0 / deadzone=21,11 / fast_pskip=1 / chroma_qp_offset=-3 / threads=6 / lookahead_threads=1 / sliced_threads=0 / nr=0 / decimate=0 / interlaced=0 / bluray_compat=0 / constrained_intra=0 / bframes=8 / b_pyramid=2 / b_adapt=2 / b_bias=0 / direct=3 / weightb=1 / open_gop=0 / weightp=2 / keyint=250 / keyint_min=25 / scenecut=40 / intra_refresh=0 / rc=2pass / mbtree=0 / bitrate=1550 / ratetol=1.0 / qcomp=0.60 / qpmin=0 / qpmax=69 / qpstep=4 / cplxblur=20.0 / qblur=0.5 / ip_ratio=1.40 / pb_ratio=1.30 / aq=1:1.00
Default : Да
Forced : Нет

Аудио
Идентификатор : 2
Формат : AC-3
Формат/Информация : Audio Coding 3
Расширение режима : CM (complete main)
Параметр Endianness формата : Big
Идентификатор кодека : A_AC3
Продолжительность : 23 м.
Вид битрейта : Постоянный
Битрейт : 192 Кбит/сек
Каналы : 2 канала
Расположение каналов : Front: L R
Частота : 48,0 КГц
Битовая глубина : 16 бит
Метод сжатия : С потерями
Размер потока : 32,5 Мбайт (11%)
Default : Да
Forced : Нет




Rip by: Vovan366
Не забывайте говорить Спасибо. Не уходите с раздачи!   
Торрент: Зарегистрирован [09 фев 2018, 16:01] Для скачивания .torrent
необходима регистрация
Или скачать с помощью
MediaGet
Статус:
Проверен
 
.torrent скачан: 0 раз
Хэш: 5d1e3159c0b7e78b8dbf720f9654d2d948b4a121
Размер: 6.12 ГБ (6 571 736 237 байт)
   Стать Автором раздачи
   
Цитата
  • Похожие торренты
    Ответы
    Просмотры
    Последнее сообщение

Вернуться в Ольга / Физрук

Кто сейчас на конференции

Сейчас эту тему просматривают: нет зарегистрированных пользователей и гости: 1