Физрук [S02] (2014) WEB-DLRip 720p от R.G. HD-Films | 50 fps

 Статистика раздачи 
Размер: 20.4 ГБ   |  Зарегистрирован: 09 фев 2018, 16:01   |   .torrent скачан: 0 раз
Сидеров: 0  [ 0 байт/сек ]     Личеров: 0  [ 0 байт/сек ]  
  
Аватара пользователя
 
Раздал: 70.17 ГБ
Скачал: 8.1 ГБ
Ратио: 9.632
Сообщения: 6549
Стаж: 8 лет 1 месяц 16 дней

Название: Физрук (Сериал)
Год выпуска: 2014
Страна: Россия
Жанр: комедия
Продолжительность: ~ 00:26:00
Перевод: Не требуется
Режиссер: Сергей Сенцов, Фёдор Стуков
В ролях: Дмитрий Нагиев (Фома), Александр Гордон (Мамай), Полина Гренц (Саша Мамаева), Анастасия Панина (Татьяна Александровна), Владимир Сычев (Псих), Даниил Вахрушев (Валя Вялых), Андрей Крыжний (Банан), Артур Сопельник (Антон «Борзый»), Оксана Сидоренко (Полина), Карина Мишулина (Света), Роман Индык (Альберт Моисеевич), Елена Муравьева (Эльвира Петровна)
Описание:
Это история о столкновении двух времен: «лихих» 90-х и «стабильных» десятых. Главный герой Фома всю жизнь был «правой рукой» влиятельного человека с полукриминальным прошлым. Когда «хозяин» выгнал его на пенсию, Фома решил любым способом вернуться обратно. Сначала казалось, что все будет просто: подобраться к ребенку бывшего босса, прогнуться, напомнить о себе и вернуться в дело. Но план Фомы рушится в первый же день. В школе ему приходится задержаться надолго. Попав в абсолютно незнакомый мир детей и учителей, который кардинально отличается от привычного ему круга, Фома не только меняет свою жизнь, но и меняется сам.

Рейтинг


imdb.com: 7.80 (526)

Качество: WEB-DLRip 720p
Формат: MKV
Видео кодек: AVC
Аудио кодек:AC3
Видео: AVC, 1280x720 (16:9), 5968 kbps, 50 fps, 0,130 bpp
Аудио: русский / AC3 / 2.0 / 48 kHz / 192 kbps / 16 bit


General
Unique ID : 187820970318935450614416091305450327391 (0x8D4D00CAA5010E44AB2FF368FD96CD5F)
Complete name : E:КодировкаРаздачаФизрук 2�1.Fizruk.2014 (1).mkv
Format : Matroska
Format version : Version 4 / Version 2
File size : 1.13 GiB
Duration : 26mn 12s
Overall bit rate : 6 160 Kbps
Movie name : Fizruk-2.(01.seriya).2014.WEB-DL.(720p).MediaClub
Encoded date : UTC 2015-06-20 16:20:24
Writing application : mkvmerge v7.0.0 ('Where We Going') 64bit built on Jun 9 2014 15:16:27
Writing library : libebml v1.3.0 + libmatroska v1.4.1
DURATION : 00:26:12.940000000
NUMBER_OF_FRAMES : 78647
NUMBER_OF_BYTES : 1172853208
_STATISTICS_WRITING_APP : mkvmerge v7.0.0 ('Where We Going') 64bit built on Jun 9 2014 15:16:27
_STATISTICS_WRITING_DATE_UTC : 2015-06-20 16:20:24
_STATISTICS_TAGS : BPS DURATION NUMBER_OF_FRAMES NUMBER_OF_BYTES

Video
ID : 2
Format : AVC
Format/Info : Advanced Video Codec
Format profile : High@L4.1
Format settings, CABAC : Yes
Format settings, ReFrames : 9 frames
Codec ID : V_MPEG4/ISO/AVC
Duration : 26mn 12s
Bit rate : 5 968 Kbps
Width : 1 280 pixels
Height : 720 pixels
Display aspect ratio : 16:9
Frame rate : 50.000 fps
Color space : YUV
Chroma subsampling : 4:2:0
Bit depth : 8 bits
Scan type : Progressive
Bits/(Pixel*Frame) : 0.130
Stream size : 1.07 GiB (95%)
Writing library : x264 core 146 r2538 121396c
Encoding settings : cabac=1 / ref=9 / deblock=1:0:0 / analyse=0x3:0 / me=umh / subme=9 / psy=1 / psy_rd=1.00:0.10 / mixed_ref=1 / me_range=42 / chroma_me=0 / trellis=2 / 8x8dct=1 / cqm=0 / deadzone=21,11 / fast_pskip=0 / chroma_qp_offset=-3 / threads=12 / lookahead_threads=3 / sliced_threads=0 / nr=0 / decimate=0 / interlaced=0 / bluray_compat=0 / constrained_intra=0 / bframes=16 / b_pyramid=2 / b_adapt=2 / b_bias=0 / direct=3 / weightb=1 / open_gop=0 / weightp=2 / keyint=600 / keyint_min=50 / scenecut=40 / intra_refresh=0 / rc=2pass / mbtree=0 / bitrate=5968 / ratetol=1.0 / qcomp=0.60 / qpmin=0 / qpmax=69 / qpstep=4 / cplxblur=20.0 / qblur=0.5 / ip_ratio=1.40 / pb_ratio=1.30 / aq=1:0.90
Default : Yes
Forced : No
DURATION : 00:26:12.896000000
NUMBER_OF_FRAMES : 49153
NUMBER_OF_BYTES : 37749504
_STATISTICS_WRITING_APP : mkvmerge v7.0.0 ('Where We Going') 64bit built on Jun 9 2014 15:16:27
_STATISTICS_WRITING_DATE_UTC : 2015-06-20 16:20:24
_STATISTICS_TAGS : BPS DURATION NUMBER_OF_FRAMES NUMBER_OF_BYTES

Audio
ID : 1
Format : AC-3
Format/Info : Audio Coding 3
Mode extension : CM (complete main)
Codec ID : A_AC3
Duration : 26mn 12s
Bit rate mode : Constant
Bit rate : 192 Kbps
Channel(s) : 2 channels
Channel positions : Front: L R
Sampling rate : 48.0 KHz
Bit depth : 16 bits
Compression mode : Lossy
Stream size : 36.0 MiB (3%)
Language : Russian
Default : Yes
Forced : Yes



Просьба к переливающим на другие сайты, в оформлении указывайте пожалуйста авторство группы
Не забывайте говорить Спасибо. Не уходите с раздачи!   
Торрент: Зарегистрирован [09 фев 2018, 16:01] Для скачивания .torrent
необходима регистрация
Или скачать с помощью
MediaGet
Статус:
Проверен
 
.torrent скачан: 0 раз
Хэш: 4673035ec5da1b76808f4261652c5db332f3e0ef
Размер: 20.4 ГБ (21 909 640 570 байт)
   Стать Автором раздачи
   
Цитата
  • Похожие торренты
    Ответы
    Просмотры
    Последнее сообщение

Вернуться в Ольга / Физрук

Кто сейчас на конференции

Сейчас эту тему просматривают: нет зарегистрированных пользователей и гости: 1