Ольга [01-20 из 20] (2016) WEB-DLRip от GeneralFilm

 Статистика раздачи 
Размер: 4.34 ГБ   |  Зарегистрирован: 09 фев 2018, 15:38   |   .torrent скачан: 0 раз
Сидеров: 0  [ 0 байт/сек ]     Личеров: 0  [ 0 байт/сек ]  
  
Аватара пользователя
 
Раздал: 70.17 ГБ
Скачал: 8.1 ГБ
Ратио: 9.632
Сообщения: 6550
Стаж: 7 лет 11 месяцев 17 дней
СообщениеДобавлено: 05 окт 2016, 21:55


Информация о фильме
Оригинальное название: Ольга
Год выпуска: 2016
Жанр: Комедия, драма
Режиссеры: Алексей Нужный, Игорь Волошин
В ролях: Яна Троянова, Василий Кортуков, Алина Алексеева, Ксения Суркова, Сергей Романович, Максим Костромыкин, Фархад Гусейнов, Борис Дергачев, Александр Шам, Александр Никольский

О фильме:
Ольга — обычная русская женщина, которая одна «воспитывает» детей от разных браков, отца-алкоголика и бесшабашную сестру. При этом она остаётся жизнерадостной, сохраняет оптимизм и верит в «светлое» будущее.



Страна: Россия
Студия: Кинокомпания «Стар Гелакси»
Продолжительность: 20 x ~ 00:22:00
Перевод: Не требуется

Файл
Формат: AVI
Качество: WEB-DLRip
Видео: XviD build 73, 688x384 (16:9), 25.000 fps, ~ 1250 Kbps (~ 0.190 bit/pixel)
Звук: 48.0 kHz, MP3, 2/0 ch, 128 kbps
Субтитры: нет

General
Complete name : Oljga.2016.XviD.WEB-DLRip.by.GeneralFilmSerija.01.avi
Format : AVI
Format/Info : Audio Video Interleave
File size : 223 MiB
Duration : 21mn 45s
Overall bit rate : 1 434 Kbps
Writing application : VirtualDubMod 1.5.10.3 | www.virtualdub-fr.org || (build 2550/release)
Writing library : VirtualDubMod build 2550/release

Video
ID : 0
Format : MPEG-4 Visual
Format profile : Advanced Simple@L5
Format settings, BVOP : 1
Format settings, QPel : No
Format settings, GMC : No warppoints
Format settings, Matrix : Custom
Codec ID : XVID
Codec ID/Hint : XviD
Duration : 21mn 45s
Bit rate : 1 297 Kbps
Width : 688 pixels
Height : 384 pixels
Display aspect ratio : 16:9
Frame rate : 25.000 fps
Color space : YUV
Chroma subsampling : 4:2:0
Bit depth : 8 bits
Scan type : Progressive
Compression mode : Lossy
Bits/(Pixel*Frame) : 0.196
Stream size : 202 MiB (90%)
Writing library : XviD 73

Audio
ID : 1
Format : MPEG Audio
Format version : Version 1
Format profile : Layer 3
Codec ID : 55
Codec ID/Hint : MP3
Duration : 21mn 45s
Bit rate mode : Constant
Bit rate : 128 Kbps
Channel(s) : 2 channels
Sampling rate : 48.0 KHz
Compression mode : Lossy
Stream size : 19.9 MiB (9%)
Alignment : Aligned on interleaves
Interleave, duration : 40 ms (1.00 video frame)
Interleave, preload duratio : 504 ms
Writing library : LAME3.99r
Encoding settings : -m s -V 4 -q 0 -lowpass 17 -b 128



Релиз от:
Не забывайте говорить Спасибо. Не уходите с раздачи!   
Торрент: Зарегистрирован [09 фев 2018, 15:38] Для скачивания .torrent
необходима регистрация
Или скачать с помощью
MediaGet
Статус:
Проверен
 
.torrent скачан: 0 раз
Размер: 4.34 ГБ (4 665 372 672 байт)
   Стать Автором раздачи
   
Цитата
  • Похожие торренты
    Ответы
    Просмотры
    Последнее сообщение

Вернуться в Ольга / Физрук

Кто сейчас на конференции

Сейчас эту тему просматривают: нет зарегистрированных пользователей и гости: 1