SmartMe University | Изучаем Ruby (2015) PCRec [H.264]

 Статистика раздачи 
Размер: 2.59 ГБ   |  Зарегистрирован: 18 дек 2017, 08:10   |   .torrent скачан: 3 раз
Сидеров: 17  [ 0 байт/сек ]     Личеров: 4  [ 0 байт/сек ]  
  
Аватара пользователя
 
Раздал: 1.84 ТБ
Скачал: 4.79 ГБ
Ратио: 392.632
Сообщения: 134621
Стаж: 1 год 2 месяца 3 дня
СообщениеДобавлено: 17 дек 2017, 23:29


SmartMe University | Изучаем Ruby (2015) PCRec [H.264]

Автор (режиссер): Алексей Васильев
Производство: SmartMe University
Жанр: Программирование, Ruby

Описание:
Этот курс предназначен для освоения основополагающих навыков программирования на языке Ruby и программирования вообще. После него можно учиться дальше и стать разработчиком на Ruby on Rails, или data scientist, обрабатывающим данные современными методами, или же стать DevOps специалистом. А можно просто применять полученные знания в быту, для автоматизации мелких задач, исследования интересных проблем и прочего фана.

Продолжительность: 05:10:38
Качество видео: PCRec

Видео: AVC/H.264, 1280-1920x720-1080, ~789-1577 Kbps
Аудио: AAC, 2 ch, 125-192 Kbps
Код: Выделить всё
Общее
Полное имя                               : \[SmartMe] Изучаем Ruby\01 Новичок\01 ИНТЕРАКТИВНАЯ КОНСОЛЬ.mp4
Формат                                   : MPEG-4
Профиль формата                          : Base Media / Version 2
Идентификатор кодека                     : mp42 (isom/mp42)
Размер файла                             : 77,4 Мбайт
Продолжительность                        : 10 м. 0 с.
Режим общего битрейта                    : Переменный
Общий поток                              : 1080 Кбит/сек
Дата кодирования                         : UTC 2016-01-14 17:54:58
Дата пометки                             : UTC 2016-01-14 17:54:58
gsst                                     : 0
gstd                                     : 600861
gssd                                     : B4A7DD822

Видео
Идентификатор                            : 1
Формат                                   : AVC
Формат/Информация                        : Advanced Video Codec
Профиль формата                          : [url=http://nnm-club.name/mailto:[email protected]][email protected][/url]
Параметр CABAC формата                   : Да
Параметр RefFrames формата               : 1 кадр
Идентификатор кодека                     : avc1
Идентификатор кодека/Информация          : Advanced Video Coding
Продолжительность                        : 10 м. 0 с.
Битрейт                                  : 886 Кбит/сек
Максимальный битрейт                     : 5148 Кбит/сек
Ширина                                   : 1280 пикселей
Высота                                   : 720 пикселей
Соотношение сторон                       : 16:9
Режим частоты кадров                     : Постоянный
Частота кадров                           : 25,000 кадров/сек
Цветовое пространство                    : YUV
Субдискретизация насыщенности            : 4:2:0
Битовая глубина                          : 8 бит
Тип развёртки                            : Прогрессивная
Бит/(Пиксели*Кадры)                      : 0.038
Размер потока                            : 63,5 Мбайт (82%)
Дата пометки                             : UTC 2016-01-14 17:55:06

Аудио
Идентификатор                            : 2
Формат                                   : AAC
Формат/Информация                        : Advanced Audio Codec
Профиль формата                          : LC
Идентификатор кодека                     : 40
Продолжительность                        : 10 м. 0 с.
Вид битрейта                             : Переменный
Битрейт                                  : 192 Кбит/сек
Максимальный битрейт                     : 201 Кбит/сек
Каналы                                   : 2 канала
Расположение каналов                     : Front: L R
Частота                                  : 44,1 КГц
Частота кадров                           : 43,066 кадра/сек (1024 SPF)
Метод сжатия                             : С потерями
Размер потока                            : 13,8 Мбайт (18%)
Заголовок                                : IsoMedia File Produced by Google, 5-11-2011
Язык                                     : English
Дата кодирования                         : UTC 2016-01-14 17:55:00
Дата пометки                             : UTC 2016-01-14 17:55:06

Общее
Полное имя                               : \[SmartMe] Изучаем Ruby\01 Новичок\11 ПОТОКИ.mp4
Формат                                   : MPEG-4
Профиль формата                          : Base Media
Идентификатор кодека                     : isom (isom/iso2/avc1/mp41)
Размер файла                             : 130 Мбайт
Продолжительность                        : 12 м. 43 с.
Общий поток                              : 1432 Кбит/сек
Программа кодирования                    : Lavf55.33.100

Видео
Идентификатор                            : 1
Формат                                   : AVC
Формат/Информация                        : Advanced Video Codec
Профиль формата                          : [email protected]
Параметр CABAC формата                   : Да
Параметр RefFrames формата               : 2 кадра
Идентификатор кодека                     : avc1
Идентификатор кодека/Информация          : Advanced Video Coding
Продолжительность                        : 12 м. 43 с.
Duration_FirstFrame                      : -40 мс.
Битрейт                                  : 1300 Кбит/сек
Ширина                                   : 1920 пикселей
Высота                                   : 1080 пикселей
Соотношение сторон                       : 16:9
Режим частоты кадров                     : Переменный
Частота кадров                           : 25,000 кадров/сек
Минимальная частота кадров               : 25,000 кадров/сек
Максимальная частота кадров              : 25,014 кадров/сек
Цветовое пространство                    : YUV
Субдискретизация насыщенности            : 4:2:0
Битовая глубина                          : 8 бит
Тип развёртки                            : Прогрессивная
Бит/(Пиксели*Кадры)                      : 0.025
Размер потока                            : 118 Мбайт (91%)

Аудио
Идентификатор                            : 2
Формат                                   : AAC
Формат/Информация                        : Advanced Audio Codec
Профиль формата                          : LC
Идентификатор кодека                     : 40
Продолжительность                        : 12 м. 43 с.
Вид битрейта                             : Постоянный
Битрейт                                  : 126 Кбит/сек
Каналы                                   : 2 канала
Расположение каналов                     : Front: L R
Частота                                  : 44,1 КГц
Частота кадров                           : 43,066 кадра/сек (1024 SPF)
Метод сжатия                             : С потерями
Размер потока                            : 11,4 Мбайт (9%)
Default                                  : Да
AlternateGroup/String                    : 1
Почему именно этот курс:

В первую очередь, курс будет интересен слушателям, которые хотят ознакомится и начать свое изучение языка Ruby. Он должен помочь узнать что такое Ruby, что может данный язык, его основные особенности и применение.

Курс будет интересен всем техническим специалистам, которые:

    желают изучить свой первый язык программирования
    уже умеют кодить, но хотят еще знать как это делать на Ruby

От участников курса ожидается:

    базовая компьютерная грамотность
    минимальное умение работать в консоли (командной строке, терминале)
    базовое понимание объектно-ориентированного программирования (ООП)
    огромное желание узнавать новое

Содержание курса:

Новичок

    Введение в объекты.
    Введение в строки.
    Условия и циклы.
    Массивы.
    Введение в Ruby хэши.
    Методы.
    Классы.
    Lambdas and Blocks.
    Модули.
    Потоки.

Ученик

    Blocks, Procs и Lambdas
    1. Blocks, Procs и Lambdas
    2. Blocks, Procs и Lambdas - продолжаем углублятся в тему гибкости языка
    Классы: Наследование
    1. Изучаем одну из основ ООП - наследование классов в Ruby
    2. Продолжаем изучать наследование классов в Ruby
    Сравнение объектов и сериализация
    1. Изучаем, как Ruby сравнивает обьекты и что такое сериализация
    Подробнее про массивы
    1. Углубляемся в использование массивов
    Подробнее про модули
    1. Углубляемся в использование модулей
    Исключения
    1. Изучаем что такое исключение и как с ними работать в Ruby
    Коллекции
    1. Изучаем что такое коллекции и как их можно использовать в Ruby
    Поиск и исправление ошибок
    1. В Вашем первом коде начались появлятся ошибки? Давайте глянем простые примитивы, которые помогают дебажить наш код

Продвинутый

    Объектная модель Ruby
    Динамические методы
    Инспекция кода
    Eval
    Потоки, нити (fibers) и многопоточность
    Функциональное программирование
    Перехвадчики, трасировка, модули ObjectSpace и GC
    Создание собственного RubyGems

Скриншоты:



Время раздачи: 24/7 (круглосуточно) (до появления первых 3-5 скачавших)
   
Торрент: Зарегистрирован [18 дек 2017, 08:10] Web-разработка и Программирование Скачать торрент Магнет ссылка
Скачать торрент
[ Размер 31.01 КБ / Просмотров 15 ]
Статус:
Проверен
 
.torrent скачан: 3 раз
Размер: 2.59 ГБ (2 780 956 301 байт)
   Стать Автором раздачи
 
 
Цитата

Вернуться в Web-разработка и Программирование

Кто сейчас на конференции

Сейчас эту тему просматривают: нет зарегистрированных пользователей и гости: 1