Yes - Close To The Edge (1972) Reissue, Remastered, 1998, Atlantic [FLAC|Lossless|image + .cue] <Rock, Art Rock, Prog Rock>

 Статистика раздачи 
Размер: 246.04 МБ   |  Зарегистрирован: 16 дек 2017, 16:52   |   .torrent скачан: 1 раз
Сидеров: 2  [ 0 байт/сек ]     Личеров: 36  [ 0 байт/сек ]  
  
Аватара пользователя
 
Раздал: 2.01 ТБ
Скачал: 5.89 ГБ
Ратио: 348.978
Сообщения: 151790
Стаж: 1 год 2 месяца 27 дней

Yes - Close To The Edge (1972) Reissue, Remastered, 1998, Atlantic

Жанр: Rock, Art Rock, Prog Rock
Страна-производитель диска: Germany
Издание: Atlantic - 7567-82666-2
Источник: Собственный рип
Сканы: да
Продолжительность: 00:37:45

Кодек: FLAC
Битрейт: Lossless
Тип рипа: image + .cue

Треклист:
01. Close to the Edge(18:41)
1.I The Solid Time Of Change
1.II Total Mass Retain
1.III Get Up I Get Down
1.IV Seasons Of Man
02. And You and I(10:09)
2.I Cord Of Life
2.II Eclipse
2.III The Preacher The Teacher
2.IV Apocalypse
03. Siberian Khatru (8:55)
Код: Выделить всё
Exact Audio Copy V1.3 from 2. September 2016

EAC extraction logfile from 16. December 2017, 19:26

Yes / Close to the Edge

Used drive  : ASUS    DRW-24B3LT   Adapter: 1  ID: 0

Read mode               : Secure
Utilize accurate stream : Yes
Defeat audio cache      : Yes
Make use of C2 pointers : No

Read offset correction                      : 6
Overread into Lead-In and Lead-Out          : No
Fill up missing offset samples with silence : Yes
Delete leading and trailing silent blocks   : No
Null samples used in CRC calculations       : Yes
Used interface                              : Native Win32 interface for Win NT & 2000

Used output format              : User Defined Encoder
Selected bitrate                : 1024 kBit/s
Quality                         : High
Add ID3 tag                     : No
Command line compressor         : C:\Program Files (x86)\Exact Audio Copy\Flac\flac.exe
Additional command line options : -V -8 %source%

TOC of the extracted CD

     Track |   Start  |  Length  | Start sector | End sector
    ---------------------------------------------------------
        1  |  0:00.00 | 18:40.52 |         0    |    84051
        2  | 18:40.52 | 10:09.10 |     84052    |   129736
        3  | 28:49.62 |  8:55.18 |    129737    |   169879

Range status and errors

Selected range

     Filename D:\Downloads\Yes - Close to the Edge.wav

     Peak level 98.8 %
     Extraction speed 5.1 X
     Range quality 100.0 %
     Test CRC 54DC4CD3
     Copy CRC 54DC4CD3
     Copy OK

No errors occurred

AccurateRip summary

Track  1  accurately ripped (confidence 2)  [A3D5150E]  (AR v2)
Track  2  accurately ripped (confidence 2)  [B43A6D96]  (AR v2)
Track  3  accurately ripped (confidence 2)  [C553AF80]  (AR v2)

All tracks accurately ripped

End of status report

---- CUETools DB Plugin V2.1.6

[CTDB TOCID: M3OkXcxvH9gO08wW3qngTM7j7iE-] found
Submit result: already submitted
Track | CTDB Status
  1   | (609/618) Accurately ripped
  2   | (610/618) Accurately ripped
  3   | (606/618) Accurately ripped, or (2/618) differs in 4706 samples @08:55:02-08:55:07

==== Log checksum 0EE085D74DD922CD1847969449F1CD4CC44443F4788CAB4C7EFF5FF6B8E5DF17 ====
Код: Выделить всё
REM DATE 1972
REM DISCID 1408D903
REM COMMENT "ExactAudioCopy v1.3"
PERFORMER "Yes"
TITLE "Close to the Edge"
REM COMPOSER ""
FILE "Yes - Close to the Edge.flac" WAVE
  TRACK 01 AUDIO
    TITLE "Close to the Edge: I. The Solid Time of Change / II. Total Mass Retain / III...."
    PERFORMER "Yes"
    REM COMPOSER ""
    INDEX 01 00:00:00
  TRACK 02 AUDIO
    TITLE "And You and I: I. Cord of Life / II. Eclipse / III. The Preacher The Teacher ..."
    PERFORMER "Yes"
    REM COMPOSER ""
    INDEX 00 18:40:01
    INDEX 01 18:40:52
  TRACK 03 AUDIO
    TITLE "Siberian Khatru"
    PERFORMER "Yes"
    REM COMPOSER ""
    INDEX 00 28:45:69
    INDEX 01 28:49:62
Код: Выделить всё
-----------------------

DON'T MODIFY THIS FILE

-----------------------

PERFORMER: auCDtect Task Manager, ver. 1.6.0 RC1 build 1.6.0.1
Copyright (c) 2008-2010 y-soft. All rights reserved
[url=http://y-soft.org]http://y-soft.org[/url]

ANALYZER: auCDtect: CD records authenticity detector, version 0.8.2
Copyright (c) 2004 Oleg Berngardt. All rights reserved.
Copyright (c) 2004 Alexander Djourik. All rights reserved.

FILE: Yes - Close to the Edge.flac
  Size: 254246555 Hash: C5C657DCCE69D70C6B37372C2F931DDE Accuracy: -m0
  Conclusion: CDDA 100%
  Signature: CE907A3CD0812D217F07B24243E01843F732E4FB
Код: Выделить всё
foobar2000 1.2.2 / Dynamic Range Meter 1.1.1
log date: 2017-12-16 19:50:16

--------------------------------------------------------------------------------
Analyzed: Yes / Close to the Edge
--------------------------------------------------------------------------------

DR         Peak         RMS     Duration Track
--------------------------------------------------------------------------------
DR10      -0.10 dB   -12.78 dB     18:41 ?-Close to the Edge: I. The Solid Time of Change / II. Total Mass Retain / III....
DR10      -0.10 dB   -13.45 dB     10:09 ?-And You and I: I. Cord of Life / II. Eclipse / III. The Preacher The Teacher ...
DR10      -0.10 dB   -11.63 dB      8:55 ?-Siberian Khatru
--------------------------------------------------------------------------------

Number of tracks:  3
Official DR value: DR10

Samplerate:        44100 Hz
Channels:          2
Bits per sample:   16
Bitrate:           898 kbps
Codec:             FLAC
================================================================================
Время раздачи: с 10:00 до 24:00
   
Торрент: Зарегистрирован [16 дек 2017, 16:52] Rock Скачать торрент Магнет ссылка
Скачать торрент
[ Размер 20.59 КБ / Просмотров 17 ]
Статус:
Проверен
 
.torrent скачан: 1 раз
Размер: 246.04 МБ (257 989 646 байт)
   Стать Автором раздачи
 
 
Цитата

Вернуться в Rock

Кто сейчас на конференции

Сейчас эту тему просматривают: нет зарегистрированных пользователей и гости: 1