Настоящий Детектив / True Detective / Сезон: 2 / Серии: 1-8 из 8 (Джастин Лин) [2015, США, детектив, криминал, триллер, драма, BDRemux 1080p] MVO (Амедиа) + Original

 Статистика раздачи 
Размер: 93.19 ГБ   |  Зарегистрирован: 08 фев 2018, 22:36   |   .torrent скачан: 0 раз
Сидеров: 22  [ 0 байт/сек ]     Личеров: 10  [ 0 байт/сек ]  
  
Аватара пользователя
 
Раздал: 70.17 ГБ
Скачал: 8.1 ГБ
Ратио: 9.632
Сообщения: 6552
Стаж: 7 лет 9 месяцев 22 дня

Настоящий Детектив / True Detective

Год выпуска: 2015
Страна: Америка
Жанр: детектив, криминал, триллер, драма
Продолжительность: 60 мин
Перевод: Профессиональный (многоголосый закадровый) Амедиа
Режиссёр: Джастин Лин
В ролях: Колин Фаррелл — детектив Рэймонд "Рэй" Велкоро, полицейский отдел Винчи
Рэйчел Макадамс — детектив Антигона "Эни" Беззеридес, шериф округа Вентуры
Тейлор Китч — офицер Пол Вудроу, дорожный патрульный Калифорнии
Винс Вон — Фрэнсис "Фрэнк" Семён, преступник и предприниматель
Келли Райлли — Джордан Семён, жена Фрэнка
Описание: В этом сезоне действие происходит в Калифорнии и переплетает истории офицеров из трёх сотрудничающих полицейских отделов: когда калифорнийский дорожный патрульный и ветеран войны Пол Вудроу (Китч) обнаруживает тело коррумпированного сити-менеджера Бена Каспера на обочине шоссе, детектив департамента полиции Винчи, Рэймонд "Рэй" Велкоро (Фаррелл) и шериф округа Вентуры, Антигона "Эни" Беззеридес (Макадамс), призваны оказать помощь в следующем расследовании. Профессиональный преступник Фрэнсис "Фрэнк" Семён (Вон) пытается узаконить свой бизнес со своей женой Джордан (Райлли) путём инвестиций в железнодорожный проект Каспера, но теряет свои деньги, когда Каспер погибает, что побуждает его начать собственное расследование.
Ссылка на предыдущие и альтернативные раздачи: http://rutracker.org/forum/tracker.php?nm=true%20detective
Сэмпл: http://sendfile.su/1189896
Качество: BDRemux 1080p
Контейнер: BDMV
Видео: MPEG-4 AVC Video 0 kbps 1080p / 23.976 fps / 16:9 / High Profile 4.1
Аудио: Dolby Digital Audio Russian 384 kbps 5.1 / 48 kHz / 384 kbps / DN -4dB
Аудио 2: DTS-HD Master Audio English 0 kbps 5.1 / 48 kHz / 24-bit (DTS Core: 5.1 / 48 kHz / 1509 kbps / 24-bit)
Субтитры: Presentation Graphics English 0.000 kbps
1. «The Western Book of the Dead»
Западная Книга Мертвых
2. «Night Finds You»
Ночь найдёт тебя
3. «Maybe Tomorrow»
Может, завтра
4. «Down Will Come»
Падение
5. «Other Lives»
Другие жизни
6. «Church in Ruins»
Церковь в руинах
7. «Black Maps and Motel Rooms»
Чёрные карты и номера мотеля
8. «Omega Station»
Конечная станция
Disc Title: True.Detective.S02.E01.BDRemux.Rus.Eng
Disc Size: 12,264,008,652 bytes
Protection: AACS
BD-Java: No
BDInfo: 0.5.8
Notes:
BDINFO HOME:
Cinema Squid
http://www.cinemasquid.com/blu-ray/tools/bdinfo
INCLUDES FORUMS REPORT FOR:
AVS Forum Blu-ray Audio and Video Specifications Thread
http://www.avsforum.com/avs-vb/showthread.php?t=1155731
WARNING: Report is incomplete because: Scan has not been run.
********************
PLAYLIST: 00000.MPLS
********************
<--- BEGIN FORUMS PASTE --->Код:
Код: Выделить всё
Total   Video
Title                                                           Codec   Length  Movie Size      Disc Size       Bitrate Bitrate Main Audio Track                          Secondary Audio Track
-----                                                           ------  ------- --------------  --------------  ------- ------- ------------------                        ---------------------
00000.MPLS                                                      AVC     1:00:16 0               12,264,008,652  0.00    0.00    DD AC3 5.1 384Kbps

Код:
Код: Выделить всё
DISC INFO:
Disc Title:     True.Detective.S02.E01.BDRemux.Rus.Eng
Disc Size:      12,264,008,652 bytes
Protection:     AACS
BD-Java:        No
BDInfo:         0.5.8
PLAYLIST REPORT:
Name:                   00000.MPLS
Length:                 1:00:16.738 (h:m:s.ms)
Size:                   0 bytes
Total Bitrate:          0.00 Mbps
VIDEO:
Codec                   Bitrate             Description
-----                   -------             -----------
MPEG-4 AVC Video        0 kbps              1080p / 23.976 fps / 16:9 / High Profile 4.1
AUDIO:
Codec                           Language        Bitrate         Description
-----                           --------        -------         -----------
Dolby Digital Audio             Russian         384 kbps        5.1 / 48 kHz / 384 kbps / DN -4dB
DTS-HD Master Audio             English         0 kbps          5.1 / 48 kHz / 24-bit (DTS Core: 5.1 / 48 kHz / 1509 kbps / 24-bit)
SUBTITLES:
Codec                           Language        Bitrate         Description
-----                           --------        -------         -----------
Presentation Graphics           English         0.000 kbps
FILES:
Name            Time In         Length          Size            Total Bitrate
----            -------         ------          ----            -------------
00000.M2TS      0:00:00.000     1:00:16.738     0               0
CHAPTERS:
Number          Time In         Length          Avg Video Rate  Max 1-Sec Rate  Max 1-Sec Time  Max 5-Sec Rate  Max 5-Sec Time  Max 10Sec Rate  Max 10Sec Time  Avg Frame Size  Max Frame Size  Max Frame Time
------          -------         ------          --------------  --------------  --------------  --------------  --------------  --------------  --------------  --------------  --------------  --------------
1               0:00:00.000     0:01:40.098     0 kbps          0 kbps          00:00:00.000    0 kbps          00:00:00.000    0 kbps          00:00:00.000    0 bytes         0 bytes         00:00:00.000
2               0:01:40.098     0:08:14.411     0 kbps          0 kbps          00:00:00.000    0 kbps          00:00:00.000    0 kbps          00:00:00.000    0 bytes         0 bytes         00:00:00.000
3               0:09:54.509     0:09:38.621     0 kbps          0 kbps          00:00:00.000    0 kbps          00:00:00.000    0 kbps          00:00:00.000    0 bytes         0 bytes         00:00:00.000
4               0:19:33.130     0:08:06.525     0 kbps          0 kbps          00:00:00.000    0 kbps          00:00:00.000    0 kbps          00:00:00.000    0 bytes         0 bytes         00:00:00.000
5               0:27:39.656     0:08:20.501     0 kbps          0 kbps          00:00:00.000    0 kbps          00:00:00.000    0 kbps          00:00:00.000    0 bytes         0 bytes         00:00:00.000
6               0:36:00.157     0:09:57.053     0 kbps          0 kbps          00:00:00.000    0 kbps          00:00:00.000    0 kbps          00:00:00.000    0 bytes         0 bytes         00:00:00.000
7               0:45:57.210     0:06:31.017     0 kbps          0 kbps          00:00:00.000    0 kbps          00:00:00.000    0 kbps          00:00:00.000    0 bytes         0 bytes         00:00:00.000
8               0:52:28.228     0:06:39.814     0 kbps          0 kbps          00:00:00.000    0 kbps          00:00:00.000    0 kbps          00:00:00.000    0 bytes         0 bytes         00:00:00.000
9               0:59:08.043     0:01:08.695     0 kbps          0 kbps          00:00:00.000    0 kbps          00:00:00.000    0 kbps          00:00:00.000    0 bytes         0 bytes         00:00:00.000
STREAM DIAGNOSTICS:
File            PID             Type            Codec           Language                Seconds                 Bitrate                 Bytes           Packets
----            ---             ----            -----           --------                --------------          --------------          -------------   -----
00000.M2TS      4113 (0x1011)   0x1B            AVC                                     0                       0                       0               0
00000.M2TS      4352 (0x1100)   0x81            AC3             rus (Russian)           0                       0                       0               0
00000.M2TS      4353 (0x1101)   0x86            DTS-HD MA       eng (English)           0                       0                       0               0
00000.M2TS      4608 (0x1200)   0x90            PGS             eng (English)           0                       0                       0               0

<---- END FORUMS PASTE ---->
QUICK SUMMARY:
Disc Title: True.Detective.S02.E01.BDRemux.Rus.Eng
Disc Size: 12,264,008,652 bytes
Protection: AACS
BD-Java: No
Playlist: 00000.MPLS
Size: 0 bytes
Length: 1:00:16.738
Total Bitrate: 0.00 Mbps
Video: MPEG-4 AVC Video / 0 kbps / 1080p / 23.976 fps / 16:9 / High Profile 4.1
Audio: Russian / Dolby Digital Audio / 5.1 / 48 kHz / 384 kbps / DN -4dB
Audio: English / DTS-HD Master Audio / 5.1 / 48 kHz / 24-bit (DTS Core: 5.1 / 48 kHz / 1509 kbps / 24-bit)
Subtitle: English / 0.000 kbps
Общее
Полное имя : C:\Blu-Ray\TRUE.DETECTIVE.S02.2015.BD-REMUX\TRUE.DETECTIVE.S02.2015.BD-REMUX.torrent
Размер файла : 240 Кбайт
Общее
Полное имя : C:\Blu-Ray\TRUE.DETECTIVE.S02.2015.BD-REMUX\True.Detective.S02.E01.BDRemux.Rus.Eng
Формат : Blu-ray movie
Продолжительность : 1 ч. 0 м.
Режим общего битрейта : Переменный
Общий поток : 1 бит/сек
Видео
Идентификатор : 4113 (0x1011)
Идентификатор меню : 1 (0x1)
Формат : AVC
Формат/Информация : Advanced Video Codec
Профиль формата : [email protected]
Параметр CABAC формата : Да
Параметр ReFrames формата : 4 кадра
Идентификатор кодека : 27
Продолжительность : 1 ч. 0 м.
Вид битрейта : Переменный
Максимальный битрейт : 36,0 Мбит/сек
Ширина : 1920 пикселей
Высота : 1080 пикселей
Соотношение сторон : 16:9
Частота кадров : 23,976 кадра/сек
Цветовое пространство : YUV
Субдискретизация насыщенности : 4:2:0
Битовая глубина : 8 бит
Тип развёртки : Прогрессивная
format_identifier : HDMV
Оригинал : 00000.m2ts
Аудио #1
Идентификатор : 4352 (0x1100)
Идентификатор меню : 1 (0x1)
Формат : AC-3
Формат/Информация : Audio Coding 3
Расширение режима : CM (complete main)
Параметр Endianness формата : Big
Идентификатор кодека : 129
Продолжительность : 1 ч. 0 м.
Вид битрейта : Постоянный
Битрейт : 384 Кбит/сек
Каналы : 6 каналов
Расположение каналов : Front: L C R, Side: L R, LFE
Частота : 48,0 КГц
Метод сжатия : С потерями
Размер потока : 166 Мбайт
Язык : Russian
bsid : 8
dialnorm : -27
dialnorm/String : -27 dB
compr : -0.28
compr/String : -0.28 dB
acmod : 7
lfeon : 1
dialnorm_Average : -27
dialnorm_Average/String : -27 dB
dialnorm_Minimum : -27
dialnorm_Minimum/String : -27 dB
dialnorm_Maximum : -27
dialnorm_Maximum/String : -27 dB
dialnorm_Count : 808
compr_Average : -0.05
compr_Average/String : -0.05 dB
compr_Minimum : -2.87
compr_Minimum/String : -2.87 dB
compr_Maximum : 6.55
compr_Maximum/String : 6.55 dB
compr_Count : 808
dynrng_Average : -1.19
dynrng_Average/String : -1.19 dB
dynrng_Minimum : -2.68
dynrng_Minimum/String : -2.68 dB
dynrng_Maximum : 2.57
dynrng_Maximum/String : 2.57 dB
dynrng_Count : 808
format_identifier : AC-3
Оригинал : 00000.m2ts
Аудио #2
Идентификатор : 4353 (0x1101)
Идентификатор меню : 1 (0x1)
Формат : DTS
Формат/Информация : Digital Theater Systems
Профиль формата : MA / Core
Режим : 16
Параметр Endianness формата : Big
Режим смешивания : Stream extension
Идентификатор кодека : 134
Продолжительность : 1 ч. 0 м.
Вид битрейта : Переменный
Битрейт : Неизвестно / 1509 Кбит/сек
Каналы : 6 каналов
Расположение каналов : Front: L C R, Side: L R, LFE
Частота : 48,0 КГц
Битовая глубина : 24 бит
Метод сжатия : Без потерь / Lossy
Язык : English
Оригинал : 00000.m2ts
Текст
Идентификатор : 4608 (0x1200)
Идентификатор меню : 1 (0x1)
Формат : PGS
Идентификатор кодека : 144
Продолжительность : 1 ч. 0 м.
Задержка видео : 6 с. 882 мс.
Язык : English
Оригинал : 00000.m2ts
Меню
00:00:00.000 : Chapter 1
00:01:40.098 : Chapter 2
00:09:54.509 : Chapter 3
00:19:33.130 : Chapter 4
00:27:39.656 : Chapter 5
00:36:00.157 : Chapter 6
00:45:57.210 : Chapter 7
00:52:28.228 : Chapter 8
00:59:08.043 : Chapter 9
01:00:16.695 : Chapter 10
Общее
Полное имя : C:\Blu-Ray\TRUE.DETECTIVE.S02.2015.BD-REMUX\True.Detective.S02.E02.BDRemux.Rus.Eng\BDMV\BACKUP\CLIPINF\00000.clpi
Формат : Blu-ray Clip info
Размер файла : 23,1 Кбайт
Видео
Идентификатор : 4113 (0x1011)
Формат : AVC
Формат/Информация : Advanced Video Codec
Ширина : 1920 пикселей
Высота : 1080 пикселей
Соотношение сторон : 16:9
Частота кадров : 23,976 кадра/сек
Аудио #1
Идентификатор : 4352 (0x1100)
Формат : AC-3
Формат/Информация : Audio Coding 3
Частота : 48,0 КГц
Метод сжатия : С потерями
Язык : Russian
Аудио #2
Идентификатор : 4353 (0x1101)
Формат : DTS
Формат/Информация : Digital Theater Systems
Профиль формата : MA
Частота : 48,0 КГц
Метод сжатия : С потерями
Язык : English
Текст
Идентификатор : 4608 (0x1200)
Формат : PGS
Язык : English
Общее
Полное имя : C:\Blu-Ray\TRUE.DETECTIVE.S02.2015.BD-REMUX\True.Detective.S02.E02.BDRemux.Rus.Eng\BDMV\BACKUP\index.bdmv
Формат : Blu-ray Index
Размер файла : 120 байт
Общее
Полное имя : C:\Blu-Ray\TRUE.DETECTIVE.S02.2015.BD-REMUX\True.Detective.S02.E02.BDRemux.Rus.Eng\BDMV\BACKUP\MovieObject.bdmv
Формат : Blu-ray Movie object
Размер файла : 290 байт
Общее
Полное имя : C:\Blu-Ray\TRUE.DETECTIVE.S02.2015.BD-REMUX\True.Detective.S02.E02.BDRemux.Rus.Eng\BDMV\BACKUP\PLAYLIST\00000.mpls
Формат : Blu-ray Playlist
Размер файла : 328 байт
Продолжительность : 58 м.
Общий поток : 1 бит/сек
Видео
Идентификатор : 4113 (0x1011)
Формат : AVC
Формат/Информация : Advanced Video Codec
Продолжительность : 58 м.
Ширина : 1920 пикселей
Высота : 1080 пикселей
Соотношение сторон : 16:9
Частота кадров : 23,976 кадра/сек
Аудио #1
Идентификатор : 4352 (0x1100)
Формат : AC-3
Формат/Информация : Audio Coding 3
Продолжительность : 58 м.
Частота : 48,0 КГц
Метод сжатия : С потерями
Язык : Russian
Аудио #2
Идентификатор : 4353 (0x1101)
Формат : DTS
Формат/Информация : Digital Theater Systems
Профиль формата : MA
Продолжительность : 58 м.
Частота : 48,0 КГц
Метод сжатия : С потерями
Язык : English
Текст
Идентификатор : 4608 (0x1200)
Формат : PGS
Продолжительность : 58 м.
Язык : English
Меню
00:00:00.000 : Chapter 1
00:01:36.387 : Chapter 2
00:10:33.883 : Chapter 3
00:18:46.583 : Chapter 4
00:30:27.575 : Chapter 5
00:37:17.318 : Chapter 6
00:46:44.217 : Chapter 7
00:54:16.335 : Chapter 8
00:57:29.778 : Chapter 9
00:58:39.264 : Chapter 10
Общее
Идентификатор : 1 (0x1)
Полное имя : C:\Blu-Ray\TRUE.DETECTIVE.S02.2015.BD-REMUX\True.Detective.S02.E02.BDRemux.Rus.Eng\BDMV\CLIPINF\00000.clpi
Формат : Blu-ray Clip info
Размер файла : 23,1 Кбайт
Продолжительность : 58 м.
Режим общего битрейта : Переменный
Общий поток : 26,9 Мбит/сек
Максимальный общий битрейт : 35,5 Мбит/сек
Видео
Идентификатор : 4113 (0x1011)
Идентификатор меню : 1 (0x1)
Формат : AVC
Формат/Информация : Advanced Video Codec
Профиль формата : [email protected]
Параметр CABAC формата : Да
Параметр ReFrames формата : 4 кадра
Идентификатор кодека : 27
Продолжительность : 58 м.
Вид битрейта : Переменный
Максимальный битрейт : 36,0 Мбит/сек
Ширина : 1920 пикселей
Высота : 1080 пикселей
Соотношение сторон : 16:9
Частота кадров : 23,976 кадра/сек
Цветовое пространство : YUV
Субдискретизация насыщенности : 4:2:0
Битовая глубина : 8 бит
Тип развёртки : Прогрессивная
format_identifier : HDMV
Оригинал : 00000.m2ts
Аудио #1
Идентификатор : 4352 (0x1100)
Идентификатор меню : 1 (0x1)
Формат : AC-3
Формат/Информация : Audio Coding 3
Расширение режима : CM (complete main)
Параметр Endianness формата : Big
Идентификатор кодека : 129
Продолжительность : 58 м.
Вид битрейта : Постоянный
Битрейт : 384 Кбит/сек
Каналы : 6 каналов
Расположение каналов : Front: L C R, Side: L R, LFE
Частота : 48,0 КГц
Метод сжатия : С потерями
Размер потока : 161 Мбайт
Язык : Russian
bsid : 8
dialnorm : -27
dialnorm/String : -27 dB
compr : -0.28
compr/String : -0.28 dB
acmod : 7
lfeon : 1
dialnorm_Average : -27
dialnorm_Average/String : -27 dB
dialnorm_Minimum : -27
dialnorm_Minimum/String : -27 dB
dialnorm_Maximum : -27
dialnorm_Maximum/String : -27 dB
dialnorm_Count : 811
compr_Average : 7.71
compr_Average/String : 7.71 dB
compr_Minimum : -2.87
compr_Minimum/String : -2.87 dB
compr_Maximum : 15.19
compr_Maximum/String : 15.19 dB
compr_Count : 811
dynrng_Average : 0.63
dynrng_Average/String : 0.63 dB
dynrng_Minimum : -2.87
dynrng_Minimum/String : -2.87 dB
dynrng_Maximum : 5.31
dynrng_Maximum/String : 5.31 dB
dynrng_Count : 811
format_identifier : AC-3
Оригинал : 00000.m2ts
Аудио #2
Идентификатор : 4353 (0x1101)
Идентификатор меню : 1 (0x1)
Формат : DTS
Формат/Информация : Digital Theater Systems
Профиль формата : MA / Core
Режим : 16
Параметр Endianness формата : Big
Режим смешивания : Stream extension
Идентификатор кодека : 134
Продолжительность : 58 м.
Вид битрейта : Переменный
Битрейт : Неизвестно / 1509 Кбит/сек
Каналы : 6 каналов
Расположение каналов : Front: L C R, Side: L R, LFE
Частота : 48,0 КГц
Битовая глубина : 24 бит
Метод сжатия : Без потерь / Lossy
Язык : English
Оригинал : 00000.m2ts
Текст
Идентификатор : 4608 (0x1200)
Идентификатор меню : 1 (0x1)
Формат : PGS
Идентификатор кодека : 144
Задержка видео : 6 с. 715 мс.
Язык : English
Оригинал : 00000.m2ts
Общее
Полное имя : C:\Blu-Ray\TRUE.DETECTIVE.S02.2015.BD-REMUX\True.Detective.S02.E02.BDRemux.Rus.Eng\BDMV\index.bdmv
Формат : Blu-ray Index
Размер файла : 120 байт
Общее
Полное имя : C:\Blu-Ray\TRUE.DETECTIVE.S02.2015.BD-REMUX\True.Detective.S02.E02.BDRemux.Rus.Eng\BDMV\MovieObject.bdmv
Формат : Blu-ray Movie object
Размер файла : 290 байт
Общее
Полное имя : C:\Blu-Ray\TRUE.DETECTIVE.S02.2015.BD-REMUX\True.Detective.S02.E02.BDRemux.Rus.Eng\BDMV\PLAYLIST\00000.mpls
Формат : Blu-ray Playlist
Размер файла : 328 байт
Продолжительность : 58 м.
Режим общего битрейта : Переменный
Общий поток : 1 бит/сек
Видео
Идентификатор : 4113 (0x1011)
Идентификатор меню : 1 (0x1)
Формат : AVC
Формат/Информация : Advanced Video Codec
Профиль формата : [email protected]
Параметр CABAC формата : Да
Параметр ReFrames формата : 4 кадра
Идентификатор кодека : 27
Продолжительность : 58 м.
Вид битрейта : Переменный
Максимальный битрейт : 36,0 Мбит/сек
Ширина : 1920 пикселей
Высота : 1080 пикселей
Соотношение сторон : 16:9
Частота кадров : 23,976 кадра/сек
Цветовое пространство : YUV
Субдискретизация насыщенности : 4:2:0
Битовая глубина : 8 бит
Тип развёртки : Прогрессивная
format_identifier : HDMV
Оригинал : 00000.m2ts
Аудио #1
Идентификатор : 4352 (0x1100)
Идентификатор меню : 1 (0x1)
Формат : AC-3
Формат/Информация : Audio Coding 3
Расширение режима : CM (complete main)
Параметр Endianness формата : Big
Идентификатор кодека : 129
Продолжительность : 58 м.
Вид битрейта : Постоянный
Битрейт : 384 Кбит/сек
Каналы : 6 каналов
Расположение каналов : Front: L C R, Side: L R, LFE
Частота : 48,0 КГц
Метод сжатия : С потерями
Размер потока : 161 Мбайт
Язык : Russian
bsid : 8
dialnorm : -27
dialnorm/String : -27 dB
compr : -0.28
compr/String : -0.28 dB
acmod : 7
lfeon : 1
dialnorm_Average : -27
dialnorm_Average/String : -27 dB
dialnorm_Minimum : -27
dialnorm_Minimum/String : -27 dB
dialnorm_Maximum : -27
dialnorm_Maximum/String : -27 dB
dialnorm_Count : 811
compr_Average : 7.71
compr_Average/String : 7.71 dB
compr_Minimum : -2.87
compr_Minimum/String : -2.87 dB
compr_Maximum : 15.19
compr_Maximum/String : 15.19 dB
compr_Count : 811
dynrng_Average : 0.63
dynrng_Average/String : 0.63 dB
dynrng_Minimum : -2.87
dynrng_Minimum/String : -2.87 dB
dynrng_Maximum : 5.31
dynrng_Maximum/String : 5.31 dB
dynrng_Count : 811
format_identifier : AC-3
Оригинал : 00000.m2ts
Аудио #2
Идентификатор : 4353 (0x1101)
Идентификатор меню : 1 (0x1)
Формат : DTS
Формат/Информация : Digital Theater Systems
Профиль формата : MA / Core
Режим : 16
Параметр Endianness формата : Big
Режим смешивания : Stream extension
Идентификатор кодека : 134
Продолжительность : 58 м.
Вид битрейта : Переменный
Битрейт : Неизвестно / 1509 Кбит/сек
Каналы : 6 каналов
Расположение каналов : Front: L C R, Side: L R, LFE
Частота : 48,0 КГц
Битовая глубина : 24 бит
Метод сжатия : Без потерь / Lossy
Язык : English
Оригинал : 00000.m2ts
Текст
Идентификатор : 4608 (0x1200)
Идентификатор меню : 1 (0x1)
Формат : PGS
Идентификатор кодека : 144
Продолжительность : 58 м.
Задержка видео : 6 с. 715 мс.
Язык : English
Оригинал : 00000.m2ts
Меню
00:00:00.000 : Chapter 1
00:01:36.387 : Chapter 2
00:10:33.883 : Chapter 3
00:18:46.583 : Chapter 4
00:30:27.575 : Chapter 5
00:37:17.318 : Chapter 6
00:46:44.217 : Chapter 7
00:54:16.335 : Chapter 8
00:57:29.778 : Chapter 9
00:58:39.264 : Chapter 10
Общее
Идентификатор : 1 (0x1)
Полное имя : C:\Blu-Ray\TRUE.DETECTIVE.S02.2015.BD-REMUX\True.Detective.S02.E02.BDRemux.Rus.Eng\BDMV\STREAM\00000.m2ts
Формат : BDAV
Формат/Информация : Blu-ray Video
Размер файла : 11,0 Гбайт
Продолжительность : 58 м.
Режим общего битрейта : Переменный
Общий поток : 26,9 Мбит/сек
Максимальный общий битрейт : 35,5 Мбит/сек
Видео
Идентификатор : 4113 (0x1011)
Идентификатор меню : 1 (0x1)
Формат : AVC
Формат/Информация : Advanced Video Codec
Профиль формата : [email protected]
Параметр CABAC формата : Да
Параметр ReFrames формата : 4 кадра
Идентификатор кодека : 27
Продолжительность : 58 м.
Вид битрейта : Переменный
Максимальный битрейт : 36,0 Мбит/сек
Ширина : 1920 пикселей
Высота : 1080 пикселей
Соотношение сторон : 16:9
Частота кадров : 23,976 кадра/сек
Цветовое пространство : YUV
Субдискретизация насыщенности : 4:2:0
Битовая глубина : 8 бит
Тип развёртки : Прогрессивная
Аудио #1
Идентификатор : 4352 (0x1100)
Идентификатор меню : 1 (0x1)
Формат : AC-3
Формат/Информация : Audio Coding 3
Расширение режима : CM (complete main)
Параметр Endianness формата : Big
Идентификатор кодека : 129
Продолжительность : 58 м.
Вид битрейта : Постоянный
Битрейт : 384 Кбит/сек
Каналы : 6 каналов
Расположение каналов : Front: L C R, Side: L R, LFE
Частота : 48,0 КГц
Метод сжатия : С потерями
Размер потока : 161 Мбайт (1%)
Аудио #2
Идентификатор : 4353 (0x1101)
Идентификатор меню : 1 (0x1)
Формат : DTS
Формат/Информация : Digital Theater Systems
Профиль формата : MA / Core
Режим : 16
Параметр Endianness формата : Big
Режим смешивания : Stream extension
Идентификатор кодека : 134
Продолжительность : 58 м.
Вид битрейта : Переменный
Битрейт : Неизвестно / 1509 Кбит/сек
Каналы : 6 каналов
Расположение каналов : Front: L C R, Side: L R, LFE
Частота : 48,0 КГц
Битовая глубина : 24 бит
Метод сжатия : Без потерь / Lossy
Текст
Идентификатор : 4608 (0x1200)
Идентификатор меню : 1 (0x1)
Формат : PGS
Идентификатор кодека : 144
Задержка видео : 6 с. 715 мс.
Общее
Полное имя : C:\Blu-Ray\TRUE.DETECTIVE.S02.2015.BD-REMUX\True.Detective.S02.E03.BDRemux.Rus.Eng\BDMV\BACKUP\CLIPINF\00000.clpi
Формат : Blu-ray Clip info
Размер файла : 23,3 Кбайт
Видео
Идентификатор : 4113 (0x1011)
Формат : AVC
Формат/Информация : Advanced Video Codec
Ширина : 1920 пикселей
Высота : 1080 пикселей
Соотношение сторон : 16:9
Частота кадров : 23,976 кадра/сек
Аудио #1
Идентификатор : 4352 (0x1100)
Формат : AC-3
Формат/Информация : Audio Coding 3
Частота : 48,0 КГц
Метод сжатия : С потерями
Язык : Russian
Аудио #2
Идентификатор : 4353 (0x1101)
Формат : DTS
Формат/Информация : Digital Theater Systems
Профиль формата : MA
Частота : 48,0 КГц
Метод сжатия : С потерями
Язык : English
Текст
Идентификатор : 4608 (0x1200)
Формат : PGS
Язык : English
Общее
Полное имя : C:\Blu-Ray\TRUE.DETECTIVE.S02.2015.BD-REMUX\True.Detective.S02.E03.BDRemux.Rus.Eng\BDMV\BACKUP\index.bdmv
Формат : Blu-ray Index
Размер файла : 120 байт
Общее
Полное имя : C:\Blu-Ray\TRUE.DETECTIVE.S02.2015.BD-REMUX\True.Detective.S02.E03.BDRemux.Rus.Eng\BDMV\BACKUP\MovieObject.bdmv
Формат : Blu-ray Movie object
Размер файла : 290 байт
Общее
Полное имя : C:\Blu-Ray\TRUE.DETECTIVE.S02.2015.BD-REMUX\True.Detective.S02.E03.BDRemux.Rus.Eng\BDMV\BACKUP\PLAYLIST\00000.mpls
Формат : Blu-ray Playlist
Размер файла : 314 байт
Продолжительность : 58 м.
Общий поток : 1 бит/сек
Видео
Идентификатор : 4113 (0x1011)
Формат : AVC
Формат/Информация : Advanced Video Codec
Продолжительность : 58 м.
Ширина : 1920 пикселей
Высота : 1080 пикселей
Соотношение сторон : 16:9
Частота кадров : 23,976 кадра/сек
Аудио #1
Идентификатор : 4352 (0x1100)
Формат : AC-3
Формат/Информация : Audio Coding 3
Продолжительность : 58 м.
Частота : 48,0 КГц
Метод сжатия : С потерями
Язык : Russian
Аудио #2
Идентификатор : 4353 (0x1101)
Формат : DTS
Формат/Информация : Digital Theater Systems
Профиль формата : MA
Продолжительность : 58 м.
Частота : 48,0 КГц
Метод сжатия : С потерями
Язык : English
Текст
Идентификатор : 4608 (0x1200)
Формат : PGS
Продолжительность : 58 м.
Язык : English
Меню
00:00:00.000 : Chapter 1
00:01:36.387 : Chapter 2
00:09:39.202 : Chapter 3
00:18:36.280 : Chapter 4
00:27:18.470 : Chapter 5
00:36:49.706 : Chapter 6
00:45:05.702 : Chapter 7
00:57:30.822 : Chapter 8
00:58:40.099 : Chapter 9
Общее
Идентификатор : 1 (0x1)
Полное имя : C:\Blu-Ray\TRUE.DETECTIVE.S02.2015.BD-REMUX\True.Detective.S02.E03.BDRemux.Rus.Eng\BDMV\CLIPINF\00000.clpi
Формат : Blu-ray Clip info
Размер файла : 23,3 Кбайт
Продолжительность : 58 м.
Режим общего битрейта : Переменный
Общий поток : 27,1 Мбит/сек
Максимальный общий битрейт : 35,5 Мбит/сек
Видео
Идентификатор : 4113 (0x1011)
Идентификатор меню : 1 (0x1)
Формат : AVC
Формат/Информация : Advanced Video Codec
Профиль формата : [email protected]
Параметр CABAC формата : Да
Параметр ReFrames формата : 4 кадра
Идентификатор кодека : 27
Продолжительность : 58 м.
Вид битрейта : Переменный
Максимальный битрейт : 36,0 Мбит/сек
Ширина : 1920 пикселей
Высота : 1080 пикселей
Соотношение сторон : 16:9
Частота кадров : 23,976 кадра/сек
Цветовое пространство : YUV
Субдискретизация насыщенности : 4:2:0
Битовая глубина : 8 бит
Тип развёртки : Прогрессивная
format_identifier : HDMV
Оригинал : 00000.m2ts
Аудио #1
Идентификатор : 4352 (0x1100)
Идентификатор меню : 1 (0x1)
Формат : AC-3
Формат/Информация : Audio Coding 3
Расширение режима : CM (complete main)
Параметр Endianness формата : Big
Идентификатор кодека : 129
Продолжительность : 58 м.
Вид битрейта : Постоянный
Битрейт : 384 Кбит/сек
Каналы : 6 каналов
Расположение каналов : Front: L C R, Side: L R, LFE
Частота : 48,0 КГц
Метод сжатия : С потерями
Размер потока : 161 Мбайт
Язык : Russian
bsid : 8
dialnorm : -27
dialnorm/String : -27 dB
compr : -0.28
compr/String : -0.28 dB
acmod : 7
lfeon : 1
dialnorm_Average : -27
dialnorm_Average/String : -27 dB
dialnorm_Minimum : -27
dialnorm_Minimum/String : -27 dB
dialnorm_Maximum : -27
dialnorm_Maximum/String : -27 dB
dialnorm_Count : 831
compr_Average : 1.96
compr_Average/String : 1.96 dB
compr_Minimum : -3.25
compr_Minimum/String : -3.25 dB
compr_Maximum : 11.76
compr_Maximum/String : 11.76 dB
compr_Count : 831
dynrng_Average : -0.75
dynrng_Average/String : -0.75 dB
dynrng_Minimum : -3.06
dynrng_Minimum/String : -3.06 dB
dynrng_Maximum : 3.88
dynrng_Maximum/String : 3.88 dB
dynrng_Count : 831
format_identifier : AC-3
Оригинал : 00000.m2ts
Аудио #2
Идентификатор : 4353 (0x1101)
Идентификатор меню : 1 (0x1)
Формат : DTS
Формат/Информация : Digital Theater Systems
Профиль формата : MA / Core
Режим : 16
Параметр Endianness формата : Big
Режим смешивания : Stream extension
Идентификатор кодека : 134
Продолжительность : 58 м.
Вид битрейта : Переменный
Битрейт : Неизвестно / 1509 Кбит/сек
Каналы : 6 каналов
Расположение каналов : Front: L C R, Side: L R, LFE
Частота : 48,0 КГц
Битовая глубина : 24 бит
Метод сжатия : Без потерь / Lossy
Язык : English
Оригинал : 00000.m2ts
Текст
Идентификатор : 4608 (0x1200)
Идентификатор меню : 1 (0x1)
Формат : PGS
Идентификатор кодека : 144
Задержка видео : 6 с. 298 мс.
Язык : English
Оригинал : 00000.m2ts
Общее
Полное имя : C:\Blu-Ray\TRUE.DETECTIVE.S02.2015.BD-REMUX\True.Detective.S02.E03.BDRemux.Rus.Eng\BDMV\index.bdmv
Формат : Blu-ray Index
Размер файла : 120 байт
Общее
Полное имя : C:\Blu-Ray\TRUE.DETECTIVE.S02.2015.BD-REMUX\True.Detective.S02.E03.BDRemux.Rus.Eng\BDMV\MovieObject.bdmv
Формат : Blu-ray Movie object
Размер файла : 290 байт
Общее
Полное имя : C:\Blu-Ray\TRUE.DETECTIVE.S02.2015.BD-REMUX\True.Detective.S02.E03.BDRemux.Rus.Eng\BDMV\PLAYLIST\00000.mpls
Формат : Blu-ray Playlist
Размер файла : 314 байт
Продолжительность : 58 м.
Режим общего битрейта : Переменный
Общий поток : 1 бит/сек
Видео
Идентификатор : 4113 (0x1011)
Идентификатор меню : 1 (0x1)
Формат : AVC
Формат/Информация : Advanced Video Codec
Профиль формата : [email protected]
Параметр CABAC формата : Да
Параметр ReFrames формата : 4 кадра
Идентификатор кодека : 27
Продолжительность : 58 м.
Вид битрейта : Переменный
Максимальный битрейт : 36,0 Мбит/сек
Ширина : 1920 пикселей
Высота : 1080 пикселей
Соотношение сторон : 16:9
Частота кадров : 23,976 кадра/сек
Цветовое пространство : YUV
Субдискретизация насыщенности : 4:2:0
Битовая глубина : 8 бит
Тип развёртки : Прогрессивная
format_identifier : HDMV
Оригинал : 00000.m2ts
Аудио #1
Идентификатор : 4352 (0x1100)
Идентификатор меню : 1 (0x1)
Формат : AC-3
Формат/Информация : Audio Coding 3
Расширение режима : CM (complete main)
Параметр Endianness формата : Big
Идентификатор кодека : 129
Продолжительность : 58 м.
Вид битрейта : Постоянный
Битрейт : 384 Кбит/сек
Каналы : 6 каналов
Расположение каналов : Front: L C R, Side: L R, LFE
Частота : 48,0 КГц
Метод сжатия : С потерями
Размер потока : 161 Мбайт
Язык : Russian
bsid : 8
dialnorm : -27
dialnorm/String : -27 dB
compr : -0.28
compr/String : -0.28 dB
acmod : 7
lfeon : 1
dialnorm_Average : -27
dialnorm_Average/String : -27 dB
dialnorm_Minimum : -27
dialnorm_Minimum/String : -27 dB
dialnorm_Maximum : -27
dialnorm_Maximum/String : -27 dB
dialnorm_Count : 831
compr_Average : 1.96
compr_Average/String : 1.96 dB
compr_Minimum : -3.25
compr_Minimum/String : -3.25 dB
compr_Maximum : 11.76
compr_Maximum/String : 11.76 dB
compr_Count : 831
dynrng_Average : -0.75
dynrng_Average/String : -0.75 dB
dynrng_Minimum : -3.06
dynrng_Minimum/String : -3.06 dB
dynrng_Maximum : 3.88
dynrng_Maximum/String : 3.88 dB
dynrng_Count : 831
format_identifier : AC-3
Оригинал : 00000.m2ts
Аудио #2
Идентификатор : 4353 (0x1101)
Идентификатор меню : 1 (0x1)
Формат : DTS
Формат/Информация : Digital Theater Systems
Профиль формата : MA / Core
Режим : 16
Параметр Endianness формата : Big
Режим смешивания : Stream extension
Идентификатор кодека : 134
Продолжительность : 58 м.
Вид битрейта : Переменный
Битрейт : Неизвестно / 1509 Кбит/сек
Каналы : 6 каналов
Расположение каналов : Front: L C R, Side: L R, LFE
Частота : 48,0 КГц
Битовая глубина : 24 бит
Метод сжатия : Без потерь / Lossy
Язык : English
Оригинал : 00000.m2ts
Текст
Идентификатор : 4608 (0x1200)
Идентификатор меню : 1 (0x1)
Формат : PGS
Идентификатор кодека : 144
Продолжительность : 58 м.
Задержка видео : 6 с. 298 мс.
Язык : English
Оригинал : 00000.m2ts
Меню
00:00:00.000 : Chapter 1
00:01:36.387 : Chapter 2
00:09:39.202 : Chapter 3
00:18:36.280 : Chapter 4
00:27:18.470 : Chapter 5
00:36:49.706 : Chapter 6
00:45:05.702 : Chapter 7
00:57:30.822 : Chapter 8
00:58:40.099 : Chapter 9
Общее
Идентификатор : 1 (0x1)
Полное имя : C:\Blu-Ray\TRUE.DETECTIVE.S02.2015.BD-REMUX\True.Detective.S02.E03.BDRemux.Rus.Eng\BDMV\STREAM\00000.m2ts
Формат : BDAV
Формат/Информация : Blu-ray Video
Размер файла : 11,1 Гбайт
Продолжительность : 58 м.
Режим общего битрейта : Переменный
Общий поток : 27,1 Мбит/сек
Максимальный общий битрейт : 35,5 Мбит/сек
Видео
Идентификатор : 4113 (0x1011)
Идентификатор меню : 1 (0x1)
Формат : AVC
Формат/Информация : Advanced Video Codec
Профиль формата : [email protected]
Параметр CABAC формата : Да
Параметр ReFrames формата : 4 кадра
Идентификатор кодека : 27
Продолжительность : 58 м.
Вид битрейта : Переменный
Максимальный битрейт : 36,0 Мбит/сек
Ширина : 1920 пикселей
Высота : 1080 пикселей
Соотношение сторон : 16:9
Частота кадров : 23,976 кадра/сек
Цветовое пространство : YUV
Субдискретизация насыщенности : 4:2:0
Битовая глубина : 8 бит
Тип развёртки : Прогрессивная
Аудио #1
Идентификатор : 4352 (0x1100)
Идентификатор меню : 1 (0x1)
Формат : AC-3
Формат/Информация : Audio Coding 3
Расширение режима : CM (complete main)
Параметр Endianness формата : Big
Идентификатор кодека : 129
Продолжительность : 58 м.
Вид битрейта : Постоянный
Битрейт : 384 Кбит/сек
Каналы : 6 каналов
Расположение каналов : Front: L C R, Side: L R, LFE
Частота : 48,0 КГц
Метод сжатия : С потерями
Размер потока : 161 Мбайт (1%)
Аудио #2
Идентификатор : 4353 (0x1101)
Идентификатор меню : 1 (0x1)
Формат : DTS
Формат/Информация : Digital Theater Systems
Профиль формата : MA / Core
Режим : 16
Параметр Endianness формата : Big
Режим смешивания : Stream extension
Идентификатор кодека : 134
Продолжительность : 58 м.
Вид битрейта : Переменный
Битрейт : Неизвестно / 1509 Кбит/сек
Каналы : 6 каналов
Расположение каналов : Front: L C R, Side: L R, LFE
Частота : 48,0 КГц
Битовая глубина : 24 бит
Метод сжатия : Без потерь / Lossy
Текст
Идентификатор : 4608 (0x1200)
Идентификатор меню : 1 (0x1)
Формат : PGS
Идентификатор кодека : 144
Задержка видео : 6 с. 298 мс.
Общее
Полное имя : C:\Blu-Ray\TRUE.DETECTIVE.S02.2015.BD-REMUX\True.Detective.S02.E04.BDRemux.Rus.Eng\BDMV\BACKUP\CLIPINF\00000.clpi
Формат : Blu-ray Clip info
Размер файла : 22,7 Кбайт
Видео
Идентификатор : 4113 (0x1011)
Формат : AVC
Формат/Информация : Advanced Video Codec
Ширина : 1920 пикселей
Высота : 1080 пикселей
Соотношение сторон : 16:9
Частота кадров : 23,976 кадра/сек
Аудио #1
Идентификатор : 4352 (0x1100)
Формат : AC-3
Формат/Информация : Audio Coding 3
Частота : 48,0 КГц
Метод сжатия : С потерями
Язык : Russian
Аудио #2
Идентификатор : 4353 (0x1101)
Формат : DTS
Формат/Информация : Digital Theater Systems
Профиль формата : MA
Частота : 48,0 КГц
Метод сжатия : С потерями
Язык : English
Текст
Идентификатор : 4608 (0x1200)
Формат : PGS
Язык : English
Общее
Полное имя : C:\Blu-Ray\TRUE.DETECTIVE.S02.2015.BD-REMUX\True.Detective.S02.E04.BDRemux.Rus.Eng\BDMV\BACKUP\index.bdmv
Формат : Blu-ray Index
Размер файла : 120 байт
Общее
Полное имя : C:\Blu-Ray\TRUE.DETECTIVE.S02.2015.BD-REMUX\True.Detective.S02.E04.BDRemux.Rus.Eng\BDMV\BACKUP\MovieObject.bdmv
Формат : Blu-ray Movie object
Размер файла : 290 байт
Общее
Полное имя : C:\Blu-Ray\TRUE.DETECTIVE.S02.2015.BD-REMUX\True.Detective.S02.E04.BDRemux.Rus.Eng\BDMV\BACKUP\PLAYLIST\00000.mpls
Формат : Blu-ray Playlist
Размер файла : 300 байт
Продолжительность : 55 м.
Общий поток : 1 бит/сек
Видео
Идентификатор : 4113 (0x1011)
Формат : AVC
Формат/Информация : Advanced Video Codec
Продолжительность : 55 м.
Ширина : 1920 пикселей
Высота : 1080 пикселей
Соотношение сторон : 16:9
Частота кадров : 23,976 кадра/сек
Аудио #1
Идентификатор : 4352 (0x1100)
Формат : AC-3
Формат/Информация : Audio Coding 3
Продолжительность : 55 м.
Частота : 48,0 КГц
Метод сжатия : С потерями
Язык : Russian
Аудио #2
Идентификатор : 4353 (0x1101)
Формат : DTS
Формат/Информация : Digital Theater Systems
Профиль формата : MA
Продолжительность : 55 м.
Частота : 48,0 КГц
Метод сжатия : С потерями
Язык : English
Текст
Идентификатор : 4608 (0x1200)
Формат : PGS
Продолжительность : 55 м.
Язык : English
Меню
00:00:00.000 : Chapter 1
00:01:36.429 : Chapter 2
00:12:06.433 : Chapter 3
00:28:21.907 : Chapter 4
00:38:04.864 : Chapter 5
00:44:19.822 : Chapter 6
00:54:36.481 : Chapter 7
00:55:47.302 : Chapter 8
Общее
Идентификатор : 1 (0x1)
Полное имя : C:\Blu-Ray\TRUE.DETECTIVE.S02.2015.BD-REMUX\True.Detective.S02.E04.BDRemux.Rus.Eng\BDMV\CLIPINF\00000.clpi
Формат : Blu-ray Clip info
Размер файла : 22,7 Кбайт
Продолжительность : 55 м.
Режим общего битрейта : Переменный
Общий поток : 27,1 Мбит/сек
Максимальный общий битрейт : 35,5 Мбит/сек
Видео
Идентификатор : 4113 (0x1011)
Идентификатор меню : 1 (0x1)
Формат : AVC
Формат/Информация : Advanced Video Codec
Профиль формата : [email protected]
Параметр CABAC формата : Да
Параметр ReFrames формата : 4 кадра
Идентификатор кодека : 27
Продолжительность : 55 м.
Вид битрейта : Переменный
Максимальный битрейт : 36,0 Мбит/сек
Ширина : 1920 пикселей
Высота : 1080 пикселей
Соотношение сторон : 16:9
Частота кадров : 23,976 кадра/сек
Цветовое пространство : YUV
Субдискретизация насыщенности : 4:2:0
Битовая глубина : 8 бит
Тип развёртки : Прогрессивная
format_identifier : HDMV
Оригинал : 00000.m2ts
Аудио #1
Идентификатор : 4352 (0x1100)
Идентификатор меню : 1 (0x1)
Формат : AC-3
Формат/Информация : Audio Coding 3
Расширение режима : CM (complete main)
Параметр Endianness формата : Big
Идентификатор кодека : 129
Продолжительность : 55 м.
Вид битрейта : Постоянный
Битрейт : 384 Кбит/сек
Каналы : 6 каналов
Расположение каналов : Front: L C R, Side: L R, LFE
Частота : 48,0 КГц
Метод сжатия : С потерями
Размер потока : 153 Мбайт
Язык : Russian
bsid : 8
dialnorm : -27
dialnorm/String : -27 dB
compr : -0.28
compr/String : -0.28 dB
acmod : 7
lfeon : 1
dialnorm_Average : -27
dialnorm_Average/String : -27 dB
dialnorm_Minimum : -27
dialnorm_Minimum/String : -27 dB
dialnorm_Maximum : -27
dialnorm_Maximum/String : -27 dB
dialnorm_Count : 873
compr_Average : 0.26
compr_Average/String : 0.26 dB
compr_Minimum : -2.87
compr_Minimum/String : -2.87 dB
compr_Maximum : 9.17
compr_Maximum/String : 9.17 dB
compr_Count : 873
dynrng_Average : -0.99
dynrng_Average/String : -0.99 dB
dynrng_Minimum : -3.06
dynrng_Minimum/String : -3.06 dB
dynrng_Maximum : 1.72
dynrng_Maximum/String : 1.72 dB
dynrng_Count : 873
format_identifier : AC-3
Оригинал : 00000.m2ts
Аудио #2
Идентификатор : 4353 (0x1101)
Идентификатор меню : 1 (0x1)
Формат : DTS
Формат/Информация : Digital Theater Systems
Профиль формата : MA / Core
Режим : 16
Параметр Endianness формата : Big
Режим смешивания : Stream extension
Идентификатор кодека : 134
Продолжительность : 55 м.
Вид битрейта : Переменный
Битрейт : Неизвестно / 1509 Кбит/сек
Каналы : 6 каналов
Расположение каналов : Front: L C R, Side: L R, LFE
Частота : 48,0 КГц
Битовая глубина : 24 бит
Метод сжатия : Без потерь / Lossy
Язык : English
Оригинал : 00000.m2ts
Текст
Идентификатор : 4608 (0x1200)
Идентификатор меню : 1 (0x1)
Формат : PGS
Идентификатор кодека : 144
Задержка видео : 6 с. 298 мс.
Язык : English
Оригинал : 00000.m2ts
Общее
Полное имя : C:\Blu-Ray\TRUE.DETECTIVE.S02.2015.BD-REMUX\True.Detective.S02.E04.BDRemux.Rus.Eng\BDMV\index.bdmv
Формат : Blu-ray Index
Размер файла : 120 байт
Общее
Полное имя : C:\Blu-Ray\TRUE.DETECTIVE.S02.2015.BD-REMUX\True.Detective.S02.E04.BDRemux.Rus.Eng\BDMV\MovieObject.bdmv
Формат : Blu-ray Movie object
Размер файла : 290 байт
Общее
Полное имя : C:\Blu-Ray\TRUE.DETECTIVE.S02.2015.BD-REMUX\True.Detective.S02.E04.BDRemux.Rus.Eng\BDMV\PLAYLIST\00000.mpls
Формат : Blu-ray Playlist
Размер файла : 300 байт
Продолжительность : 55 м.
Режим общего битрейта : Переменный
Общий поток : 1 бит/сек
Видео
Идентификатор : 4113 (0x1011)
Идентификатор меню : 1 (0x1)
Формат : AVC
Формат/Информация : Advanced Video Codec
Профиль формата : [email protected]
Параметр CABAC формата : Да
Параметр ReFrames формата : 4 кадра
Идентификатор кодека : 27
Продолжительность : 55 м.
Вид битрейта : Переменный
Максимальный битрейт : 36,0 Мбит/сек
Ширина : 1920 пикселей
Высота : 1080 пикселей
Соотношение сторон : 16:9
Частота кадров : 23,976 кадра/сек
Цветовое пространство : YUV
Субдискретизация насыщенности : 4:2:0
Битовая глубина : 8 бит
Тип развёртки : Прогрессивная
format_identifier : HDMV
Оригинал : 00000.m2ts
Аудио #1
Идентификатор : 4352 (0x1100)
Идентификатор меню : 1 (0x1)
Формат : AC-3
Формат/Информация : Audio Coding 3
Расширение режима : CM (complete main)
Параметр Endianness формата : Big
Идентификатор кодека : 129
Продолжительность : 55 м.
Вид битрейта : Постоянный
Битрейт : 384 Кбит/сек
Каналы : 6 каналов
Расположение каналов : Front: L C R, Side: L R, LFE
Частота : 48,0 КГц
Метод сжатия : С потерями
Размер потока : 153 Мбайт
Язык : Russian
bsid : 8
dialnorm : -27
dialnorm/String : -27 dB
compr : -0.28
compr/String : -0.28 dB
acmod : 7
lfeon : 1
dialnorm_Average : -27
dialnorm_Average/String : -27 dB
dialnorm_Minimum : -27
dialnorm_Minimum/String : -27 dB
dialnorm_Maximum : -27
dialnorm_Maximum/String : -27 dB
dialnorm_Count : 873
compr_Average : 0.26
compr_Average/String : 0.26 dB
compr_Minimum : -2.87
compr_Minimum/String : -2.87 dB
compr_Maximum : 9.17
compr_Maximum/String : 9.17 dB
compr_Count : 873
dynrng_Average : -0.99
dynrng_Average/String : -0.99 dB
dynrng_Minimum : -3.06
dynrng_Minimum/String : -3.06 dB
dynrng_Maximum : 1.72
dynrng_Maximum/String : 1.72 dB
dynrng_Count : 873
format_identifier : AC-3
Оригинал : 00000.m2ts
Аудио #2
Идентификатор : 4353 (0x1101)
Идентификатор меню : 1 (0x1)
Формат : DTS
Формат/Информация : Digital Theater Systems
Профиль формата : MA / Core
Режим : 16
Параметр Endianness формата : Big
Режим смешивания : Stream extension
Идентификатор кодека : 134
Продолжительность : 55 м.
Вид битрейта : Переменный
Битрейт : Неизвестно / 1509 Кбит/сек
Каналы : 6 каналов
Расположение каналов : Front: L C R, Side: L R, LFE
Частота : 48,0 КГц
Битовая глубина : 24 бит
Метод сжатия : Без потерь / Lossy
Язык : English
Оригинал : 00000.m2ts
Текст
Идентификатор : 4608 (0x1200)
Идентификатор меню : 1 (0x1)
Формат : PGS
Идентификатор кодека : 144
Продолжительность : 55 м.
Задержка видео : 6 с. 298 мс.
Язык : English
Оригинал : 00000.m2ts
Меню
00:00:00.000 : Chapter 1
00:01:36.429 : Chapter 2
00:12:06.433 : Chapter 3
00:28:21.907 : Chapter 4
00:38:04.864 : Chapter 5
00:44:19.822 : Chapter 6
00:54:36.481 : Chapter 7
00:55:47.302 : Chapter 8
Общее
Идентификатор : 1 (0x1)
Полное имя : C:\Blu-Ray\TRUE.DETECTIVE.S02.2015.BD-REMUX\True.Detective.S02.E04.BDRemux.Rus.Eng\BDMV\STREAM\00000.m2ts
Формат : BDAV
Формат/Информация : Blu-ray Video
Размер файла : 10,6 Гбайт
Продолжительность : 55 м.
Режим общего битрейта : Переменный
Общий поток : 27,1 Мбит/сек
Максимальный общий битрейт : 35,5 Мбит/сек
Видео
Идентификатор : 4113 (0x1011)
Идентификатор меню : 1 (0x1)
Формат : AVC
Формат/Информация : Advanced Video Codec
Профиль формата : [email protected]
Параметр CABAC формата : Да
Параметр ReFrames формата : 4 кадра
Идентификатор кодека : 27
Продолжительность : 55 м.
Вид битрейта : Переменный
Максимальный битрейт : 36,0 Мбит/сек
Ширина : 1920 пикселей
Высота : 1080 пикселей
Соотношение сторон : 16:9
Частота кадров : 23,976 кадра/сек
Цветовое пространство : YUV
Субдискретизация насыщенности : 4:2:0
Битовая глубина : 8 бит
Тип развёртки : Прогрессивная
Аудио #1
Идентификатор : 4352 (0x1100)
Идентификатор меню : 1 (0x1)
Формат : AC-3
Формат/Информация : Audio Coding 3
Расширение режима : CM (complete main)
Параметр Endianness формата : Big
Идентификатор кодека : 129
Продолжительность : 55 м.
Вид битрейта : Постоянный
Битрейт : 384 Кбит/сек
Каналы : 6 каналов
Расположение каналов : Front: L C R, Side: L R, LFE
Частота : 48,0 КГц
Метод сжатия : С потерями
Размер потока : 153 Мбайт (1%)
Аудио #2
Идентификатор : 4353 (0x1101)
Идентификатор меню : 1 (0x1)
Формат : DTS
Формат/Информация : Digital Theater Systems
Профиль формата : MA / Core
Режим : 16
Параметр Endianness формата : Big
Режим смешивания : Stream extension
Идентификатор кодека : 134
Продолжительность : 55 м.
Вид битрейта : Переменный
Битрейт : Неизвестно / 1509 Кбит/сек
Каналы : 6 каналов
Расположение каналов : Front: L C R, Side: L R, LFE
Частота : 48,0 КГц
Битовая глубина : 24 бит
Метод сжатия : Без потерь / Lossy
Текст
Идентификатор : 4608 (0x1200)
Идентификатор меню : 1 (0x1)
Формат : PGS
Идентификатор кодека : 144
Задержка видео : 6 с. 298 мс.
Общее
Полное имя : C:\Blu-Ray\TRUE.DETECTIVE.S02.2015.BD-REMUX\True.Detective.S02.E05.BDRemux.Rus.Eng\BDMV\BACKUP\CLIPINF\00000.clpi
Формат : Blu-ray Clip info
Размер файла : 23,7 Кбайт
Видео
Идентификатор : 4113 (0x1011)
Формат : AVC
Формат/Информация : Advanced Video Codec
Ширина : 1920 пикселей
Высота : 1080 пикселей
Соотношение сторон : 16:9
Частота кадров : 23,976 кадра/сек
Аудио #1
Идентификатор : 4352 (0x1100)
Формат : AC-3
Формат/Информация : Audio Coding 3
Частота : 48,0 КГц
Метод сжатия : С потерями
Язык : Russian
Аудио #2
Идентификатор : 4353 (0x1101)
Формат : DTS
Формат/Информация : Digital Theater Systems
Профиль формата : MA
Частота : 48,0 КГц
Метод сжатия : С потерями
Язык : English
Текст
Идентификатор : 4608 (0x1200)
Формат : PGS
Язык : English
Общее
Полное имя : C:\Blu-Ray\TRUE.DETECTIVE.S02.2015.BD-REMUX\True.Detective.S02.E05.BDRemux.Rus.Eng\BDMV\BACKUP\index.bdmv
Формат : Blu-ray Index
Размер файла : 120 байт
Общее
Полное имя : C:\Blu-Ray\TRUE.DETECTIVE.S02.2015.BD-REMUX\True.Detective.S02.E05.BDRemux.Rus.Eng\BDMV\BACKUP\MovieObject.bdmv
Формат : Blu-ray Movie object
Размер файла : 290 байт
Общее
Полное имя : C:\Blu-Ray\TRUE.DETECTIVE.S02.2015.BD-REMUX\True.Detective.S02.E05.BDRemux.Rus.Eng\BDMV\BACKUP\PLAYLIST\00000.mpls
Формат : Blu-ray Playlist
Размер файла : 314 байт
Продолжительность : 59 м.
Общий поток : 1 бит/сек
Видео
Идентификатор : 4113 (0x1011)
Формат : AVC
Формат/Информация : Advanced Video Codec
Продолжительность : 59 м.
Ширина : 1920 пикселей
Высота : 1080 пикселей
Соотношение сторон : 16:9
Частота кадров : 23,976 кадра/сек
Аудио #1
Идентификатор : 4352 (0x1100)
Формат : AC-3
Формат/Информация : Audio Coding 3
Продолжительность : 59 м.
Частота : 48,0 КГц
Метод сжатия : С потерями
Язык : Russian
Аудио #2
Идентификатор : 4353 (0x1101)
Формат : DTS
Формат/Информация : Digital Theater Systems
Профиль формата : MA
Продолжительность : 59 м.
Частота : 48,0 КГц
Метод сжатия : С потерями
Язык : English
Текст
Идентификатор : 4608 (0x1200)
Формат : PGS
Продолжительность : 59 м.
Язык : English
Меню
00:00:00.000 : Chapter 1
00:01:37.221 : Chapter 2
00:10:37.720 : Chapter 3
00:20:32.772 : Chapter 4
00:30:03.425 : Chapter 5
00:41:29.945 : Chapter 6
00:50:58.221 : Chapter 7
00:58:33.800 : Chapter 8
00:59:43.161 : Chapter 9
Общее
Идентификатор : 1 (0x1)
Полное имя : C:\Blu-Ray\TRUE.DETECTIVE.S02.2015.BD-REMUX\True.Detective.S02.E05.BDRemux.Rus.Eng\BDMV\CLIPINF\00000.clpi
Формат : Blu-ray Clip info
Размер файла : 23,7 Кбайт
Продолжительность : 59 м.
Режим общего битрейта : Переменный
Общий поток : 26,9 Мбит/сек
Максимальный общий битрейт : 35,5 Мбит/сек
Видео
Идентификатор : 4113 (0x1011)
Идентификатор меню : 1 (0x1)
Формат : AVC
Формат/Информация : Advanced Video Codec
Профиль формата : [email protected]
Параметр CABAC формата : Да
Параметр ReFrames формата : 4 кадра
Идентификатор кодека : 27
Продолжительность : 59 м.
Вид битрейта : Переменный
Максимальный битрейт : 36,0 Мбит/сек
Ширина : 1920 пикселей
Высота : 1080 пикселей
Соотношение сторон : 16:9
Частота кадров : 23,976 кадра/сек
Цветовое пространство : YUV
Субдискретизация насыщенности : 4:2:0
Битовая глубина : 8 бит
Тип развёртки : Прогрессивная
format_identifier : HDMV
Оригинал : 00000.m2ts
Аудио #1
Идентификатор : 4352 (0x1100)
Идентификатор меню : 1 (0x1)
Формат : AC-3
Формат/Информация : Audio Coding 3
Расширение режима : CM (complete main)
Параметр Endianness формата : Big
Идентификатор кодека : 129
Продолжительность : 59 м.
Вид битрейта : Постоянный
Битрейт : 384 Кбит/сек
Каналы : 6 каналов
Расположение каналов : Front: L C R, Side: L R, LFE
Частота : 48,0 КГц
Метод сжатия : С потерями
Размер потока : 164 Мбайт
Язык : Russian
bsid : 8
dialnorm : -27
dialnorm/String : -27 dB
compr : -0.28
compr/String : -0.28 dB
acmod : 7
lfeon : 1
dialnorm_Average : -27
dialnorm_Average/String : -27 dB
dialnorm_Minimum : -27
dialnorm_Minimum/String : -27 dB
dialnorm_Maximum : -27
dialnorm_Maximum/String : -27 dB
dialnorm_Count : 837
compr_Average : 3.37
compr_Average/String : 3.37 dB
compr_Minimum : -2.87
compr_Minimum/String : -2.87 dB
compr_Maximum : 13.98
compr_Maximum/String : 13.98 dB
compr_Count : 837
dynrng_Average : -0.60
dynrng_Average/String : -0.60 dB
dynrng_Minimum : -2.87
dynrng_Minimum/String : -2.87 dB
dynrng_Maximum : 4.54
dynrng_Maximum/String : 4.54 dB
dynrng_Count : 837
format_identifier : AC-3
Оригинал : 00000.m2ts
Аудио #2
Идентификатор : 4353 (0x1101)
Идентификатор меню : 1 (0x1)
Формат : DTS
Формат/Информация : Digital Theater Systems
Профиль формата : MA / Core
Режим : 16
Параметр Endianness формата : Big
Режим смешивания : Stream extension
Идентификатор кодека : 134
Продолжительность : 59 м.
Вид битрейта : Переменный
Битрейт : Неизвестно / 1509 Кбит/сек
Каналы : 6 каналов
Расположение каналов : Front: L C R, Side: L R, LFE
Частота : 48,0 КГц
Битовая глубина : 24 бит
Метод сжатия : Без потерь / Lossy
Язык : English
Оригинал : 00000.m2ts
Текст
Идентификатор : 4608 (0x1200)
Идентификатор меню : 1 (0x1)
Формат : PGS
Идентификатор кодека : 144
Задержка видео : 6 с. 590 мс.
Язык : English
Оригинал : 00000.m2ts
Общее
Полное имя : C:\Blu-Ray\TRUE.DETECTIVE.S02.2015.BD-REMUX\True.Detective.S02.E05.BDRemux.Rus.Eng\BDMV\index.bdmv
Формат : Blu-ray Index
Размер файла : 120 байт
Общее
Полное имя : C:\Blu-Ray\TRUE.DETECTIVE.S02.2015.BD-REMUX\True.Detective.S02.E05.BDRemux.Rus.Eng\BDMV\MovieObject.bdmv
Формат : Blu-ray Movie object
Размер файла : 290 байт
Общее
Полное имя : C:\Blu-Ray\TRUE.DETECTIVE.S02.2015.BD-REMUX\True.Detective.S02.E05.BDRemux.Rus.Eng\BDMV\PLAYLIST\00000.mpls
Формат : Blu-ray Playlist
Размер файла : 314 байт
Продолжительность : 59 м.
Режим общего битрейта : Переменный
Общий поток : 1 бит/сек
Видео
Идентификатор : 4113 (0x1011)
Идентификатор меню : 1 (0x1)
Формат : AVC
Формат/Информация : Advanced Video Codec
Профиль формата : [email protected]
Параметр CABAC формата : Да
Параметр ReFrames формата : 4 кадра
Идентификатор кодека : 27
Продолжительность : 59 м.
Вид битрейта : Переменный
Максимальный битрейт : 36,0 Мбит/сек
Ширина : 1920 пикселей
Высота : 1080 пикселей
Соотношение сторон : 16:9
Частота кадров : 23,976 кадра/сек
Цветовое пространство : YUV
Субдискретизация насыщенности : 4:2:0
Битовая глубина : 8 бит
Тип развёртки : Прогрессивная
format_identifier : HDMV
Оригинал : 00000.m2ts
Аудио #1
Идентификатор : 4352 (0x1100)
Идентификатор меню : 1 (0x1)
Формат : AC-3
Формат/Информация : Audio Coding 3
Расширение режима : CM (complete main)
Параметр Endianness формата : Big
Идентификатор кодека : 129
Продолжительность : 59 м.
Вид битрейта : Постоянный
Битрейт : 384 Кбит/сек
Каналы : 6 каналов
Расположение каналов : Front: L C R, Side: L R, LFE
Частота : 48,0 КГц
Метод сжатия : С потерями
Размер потока : 164 Мбайт
Язык : Russian
bsid : 8
dialnorm : -27
dialnorm/String : -27 dB
compr : -0.28
compr/String : -0.28 dB
acmod : 7
lfeon : 1
dialnorm_Average : -27
dialnorm_Average/String : -27 dB
dialnorm_Minimum : -27
dialnorm_Minimum/String : -27 dB
dialnorm_Maximum : -27
dialnorm_Maximum/String : -27 dB
dialnorm_Count : 837
compr_Average : 3.37
compr_Average/String : 3.37 dB
compr_Minimum : -2.87
compr_Minimum/String : -2.87 dB
compr_Maximum : 13.98
compr_Maximum/String : 13.98 dB
compr_Count : 837
dynrng_Average : -0.60
dynrng_Average/String : -0.60 dB
dynrng_Minimum : -2.87
dynrng_Minimum/String : -2.87 dB
dynrng_Maximum : 4.54
dynrng_Maximum/String : 4.54 dB
dynrng_Count : 837
format_identifier : AC-3
Оригинал : 00000.m2ts
Аудио #2
Идентификатор : 4353 (0x1101)
Идентификатор меню : 1 (0x1)
Формат : DTS
Формат/Информация : Digital Theater Systems
Профиль формата : MA / Core
Режим : 16
Параметр Endianness формата : Big
Режим смешивания : Stream extension
Идентификатор кодека : 134
Продолжительность : 59 м.
Вид битрейта : Переменный
Битрейт : Неизвестно / 1509 Кбит/сек
Каналы : 6 каналов
Расположение каналов : Front: L C R, Side: L R, LFE
Частота : 48,0 КГц
Битовая глубина : 24 бит
Метод сжатия : Без потерь / Lossy
Язык : English
Оригинал : 00000.m2ts
Текст
Идентификатор : 4608 (0x1200)
Идентификатор меню : 1 (0x1)
Формат : PGS
Идентификатор кодека : 144
Продолжительность : 59 м.
Задержка видео : 6 с. 590 мс.
Язык : English
Оригинал : 00000.m2ts
Меню
00:00:00.000 : Chapter 1
00:01:37.221 : Chapter 2
00:10:37.720 : Chapter 3
00:20:32.772 : Chapter 4
00:30:03.425 : Chapter 5
00:41:29.945 : Chapter 6
00:50:58.221 : Chapter 7
00:58:33.800 : Chapter 8
00:59:43.161 : Chapter 9
Общее
Идентификатор : 1 (0x1)
Полное имя : C:\Blu-Ray\TRUE.DETECTIVE.S02.2015.BD-REMUX\True.Detective.S02.E05.BDRemux.Rus.Eng\BDMV\STREAM\00000.m2ts
Формат : BDAV
Формат/Информация : Blu-ray Video
Размер файла : 11,2 Гбайт
Продолжительность : 59 м.
Режим общего битрейта : Переменный
Общий поток : 26,9 Мбит/сек
Максимальный общий битрейт : 35,5 Мбит/сек
Видео
Идентификатор : 4113 (0x1011)
Идентификатор меню : 1 (0x1)
Формат : AVC
Формат/Информация : Advanced Video Codec
Профиль формата : [email protected]
Параметр CABAC формата : Да
Параметр ReFrames формата : 4 кадра
Идентификатор кодека : 27
Продолжительность : 59 м.
Вид битрейта : Переменный
Максимальный битрейт : 36,0 Мбит/сек
Ширина : 1920 пикселей
Высота : 1080 пикселей
Соотношение сторон : 16:9
Частота кадров : 23,976 кадра/сек
Цветовое пространство : YUV
Субдискретизация насыщенности : 4:2:0
Битовая глубина : 8 бит
Тип развёртки : Прогрессивная
Аудио #1
Идентификатор : 4352 (0x1100)
Идентификатор меню : 1 (0x1)
Формат : AC-3
Формат/Информация : Audio Coding 3
Расширение режима : CM (complete main)
Параметр Endianness формата : Big
Идентификатор кодека : 129
Продолжительность : 59 м.
Вид битрейта : Постоянный
Битрейт : 384 Кбит/сек
Каналы : 6 каналов
Расположение каналов : Front: L C R, Side: L R, LFE
Частота : 48,0 КГц
Метод сжатия : С потерями
Размер потока : 164 Мбайт (1%)
Аудио #2
Идентификатор : 4353 (0x1101)
Идентификатор меню : 1 (0x1)
Формат : DTS
Формат/Информация : Digital Theater Systems
Профиль формата : MA / Core
Режим : 16
Параметр Endianness формата : Big
Режим смешивания : Stream extension
Идентификатор кодека : 134
Продолжительность : 59 м.
Вид битрейта : Переменный
Битрейт : Неизвестно / 1509 Кбит/сек
Каналы : 6 каналов
Расположение каналов : Front: L C R, Side: L R, LFE
Частота : 48,0 КГц
Битовая глубина : 24 бит
Метод сжатия : Без потерь / Lossy
Текст
Идентификатор : 4608 (0x1200)
Идентификатор меню : 1 (0x1)
Формат : PGS
Идентификатор кодека : 144
Задержка видео : 6 с. 590 мс.
Общее
Полное имя : C:\Blu-Ray\TRUE.DETECTIVE.S02.2015.BD-REMUX\True.Detective.S02.E06.BDRemux.Rus.Eng\BDMV\BACKUP\CLIPINF\00000.clpi
Формат : Blu-ray Clip info
Размер файла : 23,8 Кбайт
Видео
Идентификатор : 4113 (0x1011)
Формат : AVC
Формат/Информация : Advanced Video Codec
Ширина : 1920 пикселей
Высота : 1080 пикселей
Соотношение сторон : 16:9
Частота кадров : 23,976 кадра/сек
Аудио #1
Идентификатор : 4352 (0x1100)
Формат : AC-3
Формат/Информация : Audio Coding 3
Частота : 48,0 КГц
Метод сжатия : С потерями
Язык : Russian
Аудио #2
Идентификатор : 4353 (0x1101)
Формат : DTS
Формат/Информация : Digital Theater Systems
Профиль формата : MA
Частота : 48,0 КГц
Метод сжатия : С потерями
Язык : English
Текст
Идентификатор : 4608 (0x1200)
Формат : PGS
Язык : English
Общее
Полное имя : C:\Blu-Ray\TRUE.DETECTIVE.S02.2015.BD-REMUX\True.Detective.S02.E06.BDRemux.Rus.Eng\BDMV\BACKUP\index.bdmv
Формат : Blu-ray Index
Размер файла : 120 байт
Общее
Полное имя : C:\Blu-Ray\TRUE.DETECTIVE.S02.2015.BD-REMUX\True.Detective.S02.E06.BDRemux.Rus.Eng\BDMV\BACKUP\MovieObject.bdmv
Формат : Blu-ray Movie object
Размер файла : 290 байт
Общее
Полное имя : C:\Blu-Ray\TRUE.DETECTIVE.S02.2015.BD-REMUX\True.Detective.S02.E06.BDRemux.Rus.Eng\BDMV\BACKUP\PLAYLIST\00000.mpls
Формат : Blu-ray Playlist
Размер файла : 300 байт
Продолжительность : 59 м.
Общий поток : 1 бит/сек
Видео
Идентификатор : 4113 (0x1011)
Формат : AVC
Формат/Информация : Advanced Video Codec
Продолжительность : 59 м.
Ширина : 1920 пикселей
Высота : 1080 пикселей
Соотношение сторон : 16:9
Частота кадров : 23,976 кадра/сек
Аудио #1
Идентификатор : 4352 (0x1100)
Формат : AC-3
Формат/Информация : Audio Coding 3
Продолжительность : 59 м.
Частота : 48,0 КГц
Метод сжатия : С потерями
Язык : Russian
Аудио #2
Идентификатор : 4353 (0x1101)
Формат : DTS
Формат/Информация : Digital Theater Systems
Профиль формата : MA
Продолжительность : 59 м.
Частота : 48,0 КГц
Метод сжатия : С потерями
Язык : English
Текст
Идентификатор : 4608 (0x1200)
Формат : PGS
Продолжительность : 59 м.
Язык : English
Меню
00:00:00.000 : Chapter 1
00:01:37.263 : Chapter 2
00:10:24.664 : Chapter 3
00:20:40.655 : Chapter 4
00:39:27.197 : Chapter 5
00:45:50.038 : Chapter 6
00:58:36.304 : Chapter 7
00:59:45.581 : Chapter 8
Общее
Идентификатор : 1 (0x1)
Полное имя : C:\Blu-Ray\TRUE.DETECTIVE.S02.2015.BD-REMUX\True.Detective.S02.E06.BDRemux.Rus.Eng\BDMV\CLIPINF\00000.clpi
Формат : Blu-ray Clip info
Размер файла : 23,8 Кбайт
Продолжительность : 59 м.
Режим общего битрейта : Переменный
Общий поток : 27,1 Мбит/сек
Максимальный общий битрейт : 35,5 Мбит/сек
Видео
Идентификатор : 4113 (0x1011)
Идентификатор меню : 1 (0x1)
Формат : AVC
Формат/Информация : Advanced Video Codec
Профиль формата : [email protected]
Параметр CABAC формата : Да
Параметр ReFrames формата : 4 кадра
Идентификатор кодека : 27
Продолжительность : 59 м.
Вид битрейта : Переменный
Максимальный битрейт : 36,0 Мбит/сек
Ширина : 1920 пикселей
Высота : 1080 пикселей
Соотношение сторон : 16:9
Частота кадров : 23,976 кадра/сек
Цветовое пространство : YUV
Субдискретизация насыщенности : 4:2:0
Битовая глубина : 8 бит
Тип развёртки : Прогрессивная
format_identifier : HDMV
Оригинал : 00000.m2ts
Аудио #1
Идентификатор : 4352 (0x1100)
Идентификатор меню : 1 (0x1)
Формат : AC-3
Формат/Информация : Audio Coding 3
Расширение режима : CM (complete main)
Параметр Endianness формата : Big
Идентификатор кодека : 129
Продолжительность : 59 м.
Вид битрейта : Постоянный
Битрейт : 384 Кбит/сек
Каналы : 6 каналов
Расположение каналов : Front: L C R, Side: L R, LFE
Частота : 48,0 КГц
Метод сжатия : С потерями
Размер потока : 164 Мбайт
Язык : Russian
bsid : 8
dialnorm : -27
dialnorm/String : -27 dB
compr : -0.28
compr/String : -0.28 dB
acmod : 7
lfeon : 1
dialnorm_Average : -27
dialnorm_Average/String : -27 dB
dialnorm_Minimum : -27
dialnorm_Minimum/String : -27 dB
dialnorm_Maximum : -27
dialnorm_Maximum/String : -27 dB
dialnorm_Count : 849
compr_Average : 2.98
compr_Average/String : 2.98 dB
compr_Minimum : -2.87
compr_Minimum/String : -2.87 dB
compr_Maximum : 13.06
compr_Maximum/String : 13.06 dB
compr_Count : 849
dynrng_Average : -0.45
dynrng_Average/String : -0.45 dB
dynrng_Minimum : -2.87
dynrng_Minimum/String : -2.87 dB
dynrng_Maximum : 4.38
dynrng_Maximum/String : 4.38 dB
dynrng_Count : 849
format_identifier : AC-3
Оригинал : 00000.m2ts
Аудио #2
Идентификатор : 4353 (0x1101)
Идентификатор меню : 1 (0x1)
Формат : DTS
Формат/Информация : Digital Theater Systems
Профиль формата : MA / Core
Режим : 16
Параметр Endianness формата : Big
Режим смешивания : Stream extension
Идентификатор кодека : 134
Продолжительность : 59 м.
Вид битрейта : Переменный
Битрейт : Неизвестно / 1509 Кбит/сек
Каналы : 6 каналов
Расположение каналов : Front: L C R, Side: L R, LFE
Частота : 48,0 КГц
Битовая глубина : 24 бит
Метод сжатия : Без потерь / Lossy
Язык : English
Оригинал : 00000.m2ts
Текст
Идентификатор : 4608 (0x1200)
Идентификатор меню : 1 (0x1)
Формат : PGS
Идентификатор кодека : 144
Задержка видео : 6 с. 590 мс.
Язык : English
Оригинал : 00000.m2ts
Общее
Полное имя : C:\Blu-Ray\TRUE.DETECTIVE.S02.2015.BD-REMUX\True.Detective.S02.E06.BDRemux.Rus.Eng\BDMV\index.bdmv
Формат : Blu-ray Index
Размер файла : 120 байт
Общее
Полное имя : C:\Blu-Ray\TRUE.DETECTIVE.S02.2015.BD-REMUX\True.Detective.S02.E06.BDRemux.Rus.Eng\BDMV\MovieObject.bdmv
Формат : Blu-ray Movie object
Размер файла : 290 байт
Общее
Полное имя : C:\Blu-Ray\TRUE.DETECTIVE.S02.2015.BD-REMUX\True.Detective.S02.E06.BDRemux.Rus.Eng\BDMV\PLAYLIST\00000.mpls
Формат : Blu-ray Playlist
Размер файла : 300 байт
Продолжительность : 59 м.
Режим общего битрейта : Переменный
Общий поток : 1 бит/сек
Видео
Идентификатор : 4113 (0x1011)
Идентификатор меню : 1 (0x1)
Формат : AVC
Формат/Информация : Advanced Video Codec
Профиль формата : [email protected]
Параметр CABAC формата : Да
Параметр ReFrames формата : 4 кадра
Идентификатор кодека : 27
Продолжительность : 59 м.
Вид битрейта : Переменный
Максимальный битрейт : 36,0 Мбит/сек
Ширина : 1920 пикселей
Высота : 1080 пикселей
Соотношение сторон : 16:9
Частота кадров : 23,976 кадра/сек
Цветовое пространство : YUV
Субдискретизация насыщенности : 4:2:0
Битовая глубина : 8 бит
Тип развёртки : Прогрессивная
format_identifier : HDMV
Оригинал : 00000.m2ts
Аудио #1
Идентификатор : 4352 (0x1100)
Идентификатор меню : 1 (0x1)
Формат : AC-3
Формат/Информация : Audio Coding 3
Расширение режима : CM (complete main)
Параметр Endianness формата : Big
Идентификатор кодека : 129
Продолжительность : 59 м.
Вид битрейта : Постоянный
Битрейт : 384 Кбит/сек
Каналы : 6 каналов
Расположение каналов : Front: L C R, Side: L R, LFE
Частота : 48,0 КГц
Метод сжатия : С потерями
Размер потока : 164 Мбайт
Язык : Russian
bsid : 8
dialnorm : -27
dialnorm/String : -27 dB
compr : -0.28
compr/String : -0.28 dB
acmod : 7
lfeon : 1
dialnorm_Average : -27
dialnorm_Average/String : -27 dB
dialnorm_Minimum : -27
dialnorm_Minimum/String : -27 dB
dialnorm_Maximum : -27
dialnorm_Maximum/String : -27 dB
dialnorm_Count : 849
compr_Average : 2.98
compr_Average/String : 2.98 dB
compr_Minimum : -2.87
compr_Minimum/String : -2.87 dB
compr_Maximum : 13.06
compr_Maximum/String : 13.06 dB
compr_Count : 849
dynrng_Average : -0.45
dynrng_Average/String : -0.45 dB
dynrng_Minimum : -2.87
dynrng_Minimum/String : -2.87 dB
dynrng_Maximum : 4.38
dynrng_Maximum/String : 4.38 dB
dynrng_Count : 849
format_identifier : AC-3
Оригинал : 00000.m2ts
Аудио #2
Идентификатор : 4353 (0x1101)
Идентификатор меню : 1 (0x1)
Формат : DTS
Формат/Информация : Digital Theater Systems
Профиль формата : MA / Core
Режим : 16
Параметр Endianness формата : Big
Режим смешивания : Stream extension
Идентификатор кодека : 134
Продолжительность : 59 м.
Вид битрейта : Переменный
Битрейт : Неизвестно / 1509 Кбит/сек
Каналы : 6 каналов
Расположение каналов : Front: L C R, Side: L R, LFE
Частота : 48,0 КГц
Битовая глубина : 24 бит
Метод сжатия : Без потерь / Lossy
Язык : English
Оригинал : 00000.m2ts
Текст
Идентификатор : 4608 (0x1200)
Идентификатор меню : 1 (0x1)
Формат : PGS
Идентификатор кодека : 144
Продолжительность : 59 м.
Задержка видео : 6 с. 590 мс.
Язык : English
Оригинал : 00000.m2ts
Меню
00:00:00.000 : Chapter 1
00:01:37.263 : Chapter 2
00:10:24.664 : Chapter 3
00:20:40.655 : Chapter 4
00:39:27.197 : Chapter 5
00:45:50.038 : Chapter 6
00:58:36.304 : Chapter 7
00:59:45.581 : Chapter 8
   
Торрент: Зарегистрирован [08 фев 2018, 22:36] Настоящий детектив / True Detective Скачать торрент Магнет ссылка
Скачать торрент
[ Размер 240.06 КБ / Просмотров 18 ]
Статус:
Проверен
 
.torrent скачан: 0 раз
Размер: 93.19 ГБ (100 062 760 408 байт)
   Стать Автором раздачи
 
 
Цитата
  • Похожие торренты
    Ответы
    Просмотры
    Последнее сообщение

Вернуться в Настоящий детектив / True Detective

Кто сейчас на конференции

Сейчас эту тему просматривают: нет зарегистрированных пользователей и гости: 1