Место преступления: Майами / CSI: Miami / Сезон 10 / Серия 1-19 из 19 (Sam Hill, Matt Earl Beesley, Don Tardino, Marco Black и др) [2011/12, США, Детектив, WEB-DL 720p] (SAFARI SOUND)

 Статистика раздачи 
Размер: 25.18 ГБ   |  Зарегистрирован: 08 фев 2018, 21:25   |   .torrent скачан: 0 раз
Сидеров: 0  [ 0 байт/сек ]     Личеров: 0  [ 0 байт/сек ]  
  
Аватара пользователя
 
Раздал: 70.17 ГБ
Скачал: 8.1 ГБ
Ратио: 9.632
Сообщения: 6549
Стаж: 8 лет 1 месяц 16 дней


Место преступления: Майами (сезон 10, серии 1-19) / CSI: Miami (season 10, episodes 1-19)

Год выпуска: 2011/12
Страна: США
Жанр: Детектив
Продолжительность: ~44 минуты
Перевод: Любительский многоголосый закадровый (1-8,13-19 серии); Одноголосый закадровый (9-11 серии); Двухголосый закадровый (12 серия) (SAFARI SOUND)
Русские субтитры: нет
Режиссёр: Sam Hill, Matt Earl Beesley, Don Tardino, Marco Black и др
В ролях: Дэвид Карузо, Эмили Проктер, Адам Родригез, Джонатан Того, Рекс Линн, Ева ЛаРю, Омар Миллер
Описание: Ласковое море, безоблачное небо, яркое солнце, белоснежный песок, шелест пальм и крики чаек… Это – рай на земле. Это – Майами. Но даже здесь порой совершаются преступления, пугающие своей жестокостью. Даже здесь полиция порой бывает бессильна. Именно поэтому на территории одного из самых красивых уголков планеты работает непревзойдённая команда профессионалов-криминалистов во главе с лейтенантом Горацио Кейном. Кто, как не они, лучше всех способны разобраться даже в самых запутанных преступлениях. Вместе они словно из небытия достают улики и анализируют их при помощи самых современных методов. Вместе они карают тех, кто совершает странные и страшные преступления. Вместе они ищут разгадку и всегда находят её. Потому что они – лучшие в своём деле.
Ссылка на предыдущие и альтернативные раздачи



Над релизом работали:
Роли озвучивали: Collapse & Stacy & JeFerSon (7-8 серии); Stacy & Калинда (12 серия); micola777 & Stacy & Калинда (13-19 серии)
Перевод: Dvergar
Подготовка видео и звука: Collapse & Stacy & JeFerSon (7-8 серии); Stacy & Калинда (12 серия); micola777 & Stacy & Калинда (13-19 серии)
Особая благодарность за настойчивость в появлении релиза aliasbs
Спасибо БОЛЬШОЕ gutsaloo за работу со звуком!

Качество: WEB-DL
Формат: MKV
Видео: 1280x720(16:9), ~3 953 Kbps, 23.976 fps, H264/AVC, Bits/(Pixel*Frame) : 0.179
Аудио: 48 kHz, AC-3, 6 ch, 384 kbps
Format : Matroska
File size : 1.34 GiB
Duration : 43mn 40s
Overall bit rate : 4 408 Kbps
Encoded date : UTC 2011-10-24 16:27:33
Writing application : mkvmerge v3.0.0 ('Hang up your Hang-Ups') built on Dec 15 2009 20:49:37
Writing library : libebml v0.7.9 + libmatroska v0.8.1
Video
ID : 1
Format : AVC
Format/Info : Advanced Video Codec
Format profile : High@L3.1
Format settings, CABAC : No
Format settings, ReFrames : 2 frames
Format settings, GOP : M=2, N=24
Codec ID : V_MPEG4/ISO/AVC
Duration : 43mn 40s
Bit rate : 3 936 Kbps
Width : 1 280 pixels
Height : 720 pixels
Display aspect ratio : 16:9
Frame rate : 23.976 fps
Color space : YUV
Chroma subsampling : 4:2:0
Bit depth : 8 bits
Scan type : Progressive
Bits/(Pixel*Frame) : 0.178
Stream size : 1.20 GiB (89%)
Title : CSI Miami - Season 10, Episode 1: Countermeasures
Language : English
Color primaries : BT.709-5, BT.1361, IEC 61966-2-4, SMPTE RP177
Transfer characteristics : BT.709-5, BT.1361
Matrix coefficients : BT.709-5, BT.1361, IEC 61966-2-4 709, SMPTE RP177
Audio
ID : 2
Format : AC-3
Format/Info : Audio Coding 3
Mode extension : CM (complete main)
Codec ID : A_AC3
Duration : 43mn 40s
Bit rate mode : Constant
Bit rate : 384 Kbps
Channel(s) : 6 channels
Channel positions : Front: L C R, Side: L R, LFE
Sampling rate : 48.0 KHz
Bit depth : 16 bits
Compression mode : Lossy
Stream size : 120 MiB (9%)
Title : DD5.1 (SAFARI SOUND)
Language : Russian
Внимание! Раздача ведётся путём добавления новых серий; при каждом добавлении создаётся новый торрент. Чтобы начать докачку новой серии, пользователям необходимо сделать следующее:
(1) остановить скачивание,
(2) удалить старый торрент у себя из клиента (старые серии удалять не надо),
(3) скачать новый торрент и запустить его у себя в клиенте вместо старого, при этом указать клиенту путь в старую папку куда и должно происходить скачивание новых серий.
Ваш клиент при этом должен произвести хеширование (проверку) старой папки (если не производит сам - помогите ему сделать это), и будет докачивать только те серии которых у вас ещё нет. Старые серии при этом не удаляются, а продолжают раздаваться!
Eсли вы уже удалили старые серии, то предотвратить повторную закачку старых серий можно, отжав галочку в соответствующих местах при запуске нового торрента. По возможности, желательно не удалять старые серии как можно дольше чтобы релизёр не столько продолжал раздавать старые серии, а смог сконцентрироваться на новых.
СЕЗОН ЗАВЕРШЕН.
СПАСИБО ЗА ВНИМАНИЕ,ТЕРПЕНИЕ И ТЕПЛЫЕ СЛОВА В НАШ АДРЕС!НАДЕЕМСЯ ВСТРЕТИТЬСЯ С ВАМИ СНОВА.
Не забывайте говорить Спасибо. Не уходите с раздачи!   
Торрент: Зарегистрирован [08 фев 2018, 21:25] Для скачивания .torrent
необходима регистрация
Или скачать с помощью
MediaGet
Статус:
Проверен
 
.torrent скачан: 0 раз
Хэш: ff19dbe6833cbb23d00b9671b9d0d623ec0a38bc
Размер: 25.18 ГБ (27 037 428 047 байт)
   Стать Автором раздачи
   
Цитата
  • Похожие торренты
    Ответы
    Просмотры
    Последнее сообщение

Вернуться в Место преступления / CSI: Crime Scene Investigation

Кто сейчас на конференции

Сейчас эту тему просматривают: нет зарегистрированных пользователей и гости: 1