Место Преступления: Майами / CSI: Miami / Сезон: 6 / Серии: 1-21 (21) (Энн Донахью, Кэрол Мендельсон, Энтони Е. Цукер) [2007, США, Драма, детектив, триллер, BDRip 720p] (ДТВ)

 Статистика раздачи 
Размер: 40.37 ГБ   |  Зарегистрирован: 08 фев 2018, 21:24   |   .torrent скачан: 0 раз
Сидеров: 0  [ 0 байт/сек ]     Личеров: 0  [ 0 байт/сек ]  
  
Аватара пользователя
 
Раздал: 70.17 ГБ
Скачал: 8.1 ГБ
Ратио: 9.632
Сообщения: 6549
Стаж: 8 лет 1 месяц 20 дней

Место Преступления: Майами / CSI: Miami
Год выпуска: 2007
Страна: США
Жанр: Драма, детектив, триллер
Продолжительность: ~ 00:44:00
Перевод: Профессиональный многоголосый закадровый
Русские субтитры: нет
Режиссёр: Энн Донахью, Кэрол Мендельсон, Энтони Е. Цукер
В ролях: Дэвид Карузо, Эмили Проктер, Адам Родригез, Канди Александр, Джонатан Того, Рекс Линн, Ева Ларю и др.
Описание: Ласковое море, безоблачное небо, яркое солнце, белоснежный песок, шелест пальм и крики чаек… Это – рай на земле. Это – Майами. Но даже здесь порой совершаются преступления, пугающие своей жестокостью. Даже здесь полиция порой бывает бессильна. Именно поэтому на территории одного из самых красивых уголков планеты работает непревзойдённая команда профессионалов-криминалистов во главе со специалистом по раскрытию убийств Горацио Кейном. Они молоды, красивы и умны, но главное – они лучше всех способны разобраться даже в самых запутанных преступлениях. Вместе они словно из небытия достают улики и анализируют их при помощи самых современных методов. Вместе они карают тех, кто совершает странные и страшные преступления. Вместе они ищут разгадку и всегда находят её. Потому что они – лучшие в своём деле.
Доп. информация: За предоставленные исходники большое спасибо DVDSuper01
Ссылка на предыдущие и альтернативные раздачи
Сэмпл
Качество: BDRip 720p
Формат: MKV
Видео кодек: AVC
Аудио кодек: AC3
Видео: 1280x720 (1.778), 23.976 fps, ~ 5600 Kbps, 0.256 bit/pixel
Аудио: AC-3 192 Kbps, 2 channels, 48.0 KHz / ДТВ /
Аудио 2: AC-3 448 Kbps, 6 channels, 48.0 KHz / Оригинал /
General
Complete name : D:\Torrent\Serials\Место преступления Майами\CSI Miami S06 720p\CSI.Miami.S06E05.rus(DTV).eng.720p.web-dl Deep Freeze.mkv
Format : Matroska
File size : 1.92 GiB
Duration : 43mn 43s
Overall bit rate : 6 289 Kbps
Encoded date : UTC 2011-11-25 01:36:31
Writing application : mkvmerge v5.0.1 ('Es ist Sommer') built on Oct 9 2011 11:55:43
Writing library : libebml v1.2.2 + libmatroska v1.3.0
Video
ID : 1
Format : AVC
Format/Info : Advanced Video Codec
Format profile : High@L3.1
Format settings, CABAC : Yes
Format settings, ReFrames : 5 frames
Codec ID : V_MPEG4/ISO/AVC
Duration : 43mn 43s
Bit rate : 5 649 Kbps
Width : 1 280 pixels
Height : 720 pixels
Display aspect ratio : 16:9
Frame rate : 23.976 fps
Color space : YUV
Chroma subsampling : 4:2:0
Bit depth : 8 bits
Scan type : Progressive
Bits/(Pixel*Frame) : 0.256
Stream size : 1.69 GiB (88%)
Writing library : x264 core 80 r1376 3feaec2
Encoding settings : cabac=1 / ref=5 / deblock=1:0:0 / analyse=0x3:0x113 / me=umh / subme=7 / psy=1 / psy_rd=1.0:0.0 / mixed_ref=1 / me_range=16 / chroma_me=1 / trellis=1 / 8x8dct=1 / cqm=0 / deadzone=21,11 / fast_pskip=0 / chroma_qp_offset=-2 / threads=6 / sliced_threads=0 / nr=0 / decimate=1 / mbaff=0 / constrained_intra=0 / bframes=3 / b_pyramid=0 / b_adapt=1 / b_bias=0 / direct=1 / wpredb=1 / wpredp=2 / keyint=250 / keyint_min=25 / scenecut=40 / rc_lookahead=40 / rc=2pass / mbtree=1 / bitrate=5649 / ratetol=1.0 / qcomp=0.60 / qpmin=10 / qpmax=51 / qpstep=4 / cplxblur=20.0 / qblur=0.5 / ip_ratio=1.40 / aq=1:1.00
Language : English
Audio #1
ID : 2
Format : AC-3
Format/Info : Audio Coding 3
Mode extension : CM (complete main)
Codec ID : A_AC3
Duration : 43mn 43s
Bit rate mode : Constant
Bit rate : 192 Kbps
Channel(s) : 2 channels
Channel positions : Front: L R
Sampling rate : 48.0 KHz
Bit depth : 16 bits
Stream size : 60.1 MiB (3%)
Title : DTV
Language : Russian
Audio #2
ID : 3
Format : AC-3
Format/Info : Audio Coding 3
Mode extension : CM (complete main)
Codec ID : A_AC3
Duration : 43mn 43s
Bit rate mode : Constant
Bit rate : 448 Kbps
Channel(s) : 6 channels
Channel positions : Front: L C R, Side: L R, LFE
Sampling rate : 48.0 KHz
Bit depth : 16 bits
Stream size : 140 MiB (7%)
Language : English
Не забывайте говорить Спасибо. Не уходите с раздачи!   
Торрент: Зарегистрирован [08 фев 2018, 21:24] Для скачивания .torrent
необходима регистрация
Или скачать с помощью
MediaGet
Статус:
Проверен
 
.torrent скачан: 0 раз
Хэш: f0d4bd6881c8c5f0b1f6fe152d874064d387ce7e
Размер: 40.37 ГБ (43 342 512 328 байт)
   Стать Автором раздачи
   
Цитата
  • Похожие торренты
    Ответы
    Просмотры
    Последнее сообщение

Вернуться в Место преступления / CSI: Crime Scene Investigation

Кто сейчас на конференции

Сейчас эту тему просматривают: нет зарегистрированных пользователей и гости: 1