Путёвая страна [01-20 из 20] (2013) DVBRip-AVC

 Статистика раздачи 
Размер: 5.41 ГБ   |  Зарегистрирован: 08 фев 2018, 08:22   |   .torrent скачан: 0 раз
Сидеров: 0  [ 0 байт/сек ]     Личеров: 1  [ 0 байт/сек ]  
  
Аватара пользователя
 
Раздал: 3.62 ТБ
Скачал: 100.95 ГБ
Ратио: 36.720
Сообщения: 200870
Стаж: 1 год 8 месяцев 24 дня
СообщениеДобавлено: 07 фев 2018, 09:12


Информация о фильме
Название: ПутЁвая Страна
Год выхода: 2013
Жанр: Юмор
Режиссер: Александр Бондаренко
В ролях: Евгений Гашенко, Егор Крутоголов, Александр Бережок
О фильме: "Путёвая страна" - это иронично-саркастический сериал о жизни железной дороги. Каждая серия – это день из жизни железной дороги, втиснутый в получасовую историю. Каждый сюжет – это калейдоскопом забавных, порой нелепых ситуаций, в которые приходилось попадать каждому пассажиру. Каждый эпизод – это яркие, хорошо всем известные жители железной дороги: неприветливые кассиры, предприимчивые проводники, наглые таксисты и придирчивые пассажиры.
Страна: Украина
Продолжительность: 20 x ~00:22:50
Язык: Русский
Файл
Кодек: AVC
Качество: DVBRip
Видео: MKV; 716x442 (16:9); 25 fps; 1500 kbps
Звук: AAC; 48 kHz; 2 ch; 128 kbps
Общее
Уникальный идентификатор : 279585740904129284387938366555777506305 (0xD256414A8119BF3BD233F0BE90E59C01)
Полное имя : D:/Хранилище/Видео/Путёвая страна/ПутЁвая Страна 11.mkv
Формат : Matroska
Версия формата : Version 4 / Version 2
Размер файла : 303 Мбайт
Продолжительность : 25 м. 57 с.
Общий поток : 1631 Кбит/сек
Дата кодирования : UTC 2018-02-07 05:39:18
Программа кодирования : mkvmerge v20.0.0 ('I Am The Sun') 64-bit
Библиотека кодирования : libebml v1.3.5 + libmatroska v1.4.8
Обложка : Yes
Attachments : cover.jpg
Видео
Идентификатор : 1
Формат : AVC
Формат/Информация : Advanced Video Codec
Профиль формата : High@L3.1
Настройки формата : CABAC / 8 Ref Frames
Параметр CABAC формата : Да
Параметр RefFrames формата : 8 кадров
Идентификатор кодека : V_MPEG4/ISO/AVC
Продолжительность : 25 м. 57 с.
Битрейт : 1500 Кбит/сек
Ширина : 716 пикселей
Высота : 442 пикселя
Соотношение сторон : 16:9
Соотношение сторон в оригинале : 16:9
Режим частоты кадров : Постоянный
Частота кадров : 25,000 кадров/сек
Цветовое пространство : YUV
Субдискретизация насыщенности : 4:2:0
Битовая глубина : 8 бит
Тип развёртки : Прогрессивная
Бит/(Пиксели*Кадры) : 0.190
Размер потока : 279 Мбайт (92%)
Библиотека кодирования : x264 core 152 r2851M ba24899
Настройки программы : cabac=1 / ref=8 / deblock=1:0:0 / analyse=0x3:0x133 / me=umh / subme=9 / psy=1 / psy_rd=1.00:0.00 / mixed_ref=1 / me_range=16 / chroma_me=1 / trellis=2 / 8x8dct=1 / cqm=0 / deadzone=21,11 / fast_pskip=1 / chroma_qp_offset=-2 / threads=6 / lookahead_threads=1 / sliced_threads=0 / nr=0 / decimate=1 / interlaced=0 / bluray_compat=0 / constrained_intra=0 / bframes=3 / b_pyramid=2 / b_adapt=2 / b_bias=0 / direct=3 / weightb=1 / open_gop=0 / weightp=2 / keyint=250 / keyint_min=25 / scenecut=40 / intra_refresh=0 / rc_lookahead=60 / rc=2pass / mbtree=1 / bitrate=1500 / ratetol=1.0 / qcomp=0.60 / qpmin=0 / qpmax=69 / qpstep=4 / cplxblur=20.0 / qblur=0.5 / ip_ratio=1.40 / aq=1:1.00
Default : Да
Forced : Нет
Цветовой диапазон : Limited
Коэффициенты матрицы : BT.470 System B, BT.470 System G
Аудио
Идентификатор : 2
Формат : AAC
Формат/Информация : Advanced Audio Codec
Профиль формата : LC
Идентификатор кодека : A_AAC-2
Продолжительность : 25 м. 57 с.
Битрейт : 128 Кбит/сек
Каналы : 2 канала
Расположение каналов : Front: L R
Частота : 48,0 КГц
Частота кадров : 46,875 кадров/сек (1024 SPF)
Метод сжатия : С потерями
Размер потока : 23,8 Мбайт (8%)
Default : Да
Forced : Нет

Релиз от:
-
Не забывайте говорить Спасибо. Не уходите с раздачи!   
Торрент: Зарегистрирован [08 фев 2018, 08:22] Для скачивания .torrent
необходима регистрация
Или скачать с помощью
MediaGet
Статус:
Проверен
 
.torrent скачан: 0 раз
Хэш: 5fa2f4f49ce5404c67301399dca7bd49c97c3214
Размер: 5.41 ГБ (5 814 022 165 байт)
   Стать Автором раздачи
   
Цитата
  • Похожие торренты
    Ответы
    Просмотры
    Последнее сообщение

Вернуться в Отечественный юмор (Rips)

Кто сейчас на конференции

Сейчас эту тему просматривают: нет зарегистрированных пользователей и гости: 1