Книжки-малышки [2009 г., Обучающая, интерактивная программа, DVD5]

 Статистика раздачи 
Размер: 2.48 ГБ   |  Зарегистрирован: 07 фев 2018, 15:20   |   .torrent скачан: 0 раз
Сидеров: 4  [ 0 байт/сек ]     Личеров: 0  [ 0 байт/сек ]  
  
Аватара пользователя
 
Раздал: 0 байт
Скачал: 0 байт
Ратио: Inf.
Сообщения: 112002
Стаж: 7 лет 3 месяца 10 дней
Откуда: Rossiya

Книжки-малышки


Год выпуска: 2009
Производство: Компания "Умница"
Жанр: Обучающая, интерактивная программа
Продолжительность: Циклично
Предназначено для PC и бытового DVD-плеера
Описание: Малыши очень любят сказки и смотреть картинки в книжках, а ещё больше дети любят играть. Специально для заботливых родителей и любознательных детей создана интерактивная программа "КНИЖКИ-МАЛЫШКИ".
Для малыша:
Обогащение словарного запаса
Простая и весёлая тренировка навыков чтения
Ребёнок учится читать бегло и осмысленно
Развитие интеллекта, памяти, воображения
Море положительных эмоций!
Для мамы:
Радость от успехов малыша!

Качество видео: DVD5
Видеокодек: MPEG2
Битрейт видео: ~5530 Кбит/сек
Размер кадра: 720x 576 (4:3)
Аудиокодек: PCM, 2.0
Битрейт аудио: 1536 Кбит/сек
Общее
Полное имя : E:\Загрузки\Обуч. видео для детей\Книжки-малышки\VTS_62_1.VOB
Формат : MPEG-PS
Размер файла : 137 Мбайт
Продолжительность : 2 м. 39 с.
Режим общего битрейта : Переменный
Общий поток : 7209 Кбит/сек

Видео
Идентификатор : 224 (0xE0)
Формат : MPEG Video
Версия формата : Version 2
Профиль формата : [email protected]
Параметр BVOP формата : Да
Параметр матрицы формата : По умолчанию
Параметр GOP формата : M=3, N=12
Продолжительность : 2 м. 39 с.
Вид битрейта : Переменный
Битрейт : 5530 Кбит/сек
Максимальный битрейт : 8000 Кбит/сек
Ширина : 720 пикселей
Высота : 576 пикселей
Соотношение сторон : 4:3
Частота кадров : 25,000 кадров/сек
Стандарт вещания : PAL
Цветовое пространство : YUV
Субдискретизация насыщенности : 4:2:0
Битовая глубина : 8 бит
Тип развёртки : Чересстрочная
Порядок развёртки : Нижнее поле первое
Метод сжатия : С потерями
Бит/(Пиксели*Кадры) : 0.533
Размер потока : 105 Мбайт (77%)

Аудио
Идентификатор : 189 (0xBD)-160 (0xA0)
Формат : PCM
Параметр Endianness формата : Big
Параметр Sign формата : Signed
Режим смешивания : DVD-Video
Продолжительность : 2 м. 39 с.
Вид битрейта : Постоянный
Битрейт : 1536 Кбит/сек
Каналы : 2 канала
Частота : 48,0 КГц
Битовая глубина : 16 бит
Задержка видео : -80 мс.
Размер потока : 29,2 Мбайт (21%)


   
Торрент: Зарегистрирован [07 фев 2018, 15:20] Разное (Видеоуроки) Скачать торрент Магнет ссылка
Скачать торрент
[ Размер 20.46 КБ / Просмотров 30 ]
Статус:
Проверен
 
.torrent скачан: 0 раз
Размер: 2.48 ГБ (2 665 584 640 байт)
   Стать Автором раздачи
 
 
Шапка детская "Красная шапочка". Детские шапки для бани. Изделие для защиты волос и кожи головы от воздействия высокой температуры в бане и сауне, декорированная цветными нитями
Цитата
  • Похожие торренты
    Ответы
    Просмотры
    Последнее сообщение

Вернуться в Разное (Видеоуроки)

Кто сейчас на конференции

Сейчас эту тему просматривают: нет зарегистрированных пользователей и гости: 1