Оригами - зоопарк из бумаги [2005 г., Видеоуроки, Обучающий, Развивающий, DVDRip]

 Статистика раздачи 
Размер: 700.25 МБ   |  Зарегистрирован: 07 фев 2018, 15:20   |   .torrent скачан: 0 раз
Сидеров: 1  [ 0 байт/сек ]     Личеров: 5  [ 0 байт/сек ]  
  
Аватара пользователя
 
Раздал: 0 байт
Скачал: 0 байт
Ратио: Inf.
Сообщения: 142402
Стаж: 7 лет 5 месяцев 5 дней
Откуда: Rossiya

Оригами - зоопарк из бумаги

Год выпуска: 2005
Страна: Россия
Жанр: Видеоуроки, Обучающий, Развивающий
Продолжительность: 01:52:17
Перевод: Не требуется

Описание: Несколько квадратиков цветной бумаги, ловкие движения пальцев, и вот уже на глазах у изумленной публики из ваших рук выскакивает кенгуру или выплывает тропическая рыбка.
С помощью этого обучающего видео вы сможете сделать свои первые шаги в изучении оригами - удивительного японского искусства складывания и самостоятельно сделать несколько фигурок животных и птиц.
Фильм можно использовать как для индивидуальных занятий дома, так и для работы в кружке, в детском саду и школе.
Содержание:
01. Уточка-мандаринка
02. Мышка
03. Слоник
04. Попугайчик
05. Пингвинчик
06. Колибри
07. Лисичка
08. Белочка
09. Морж
10. Павлин

Доп. информация: Материалы подготовлены Еленой и Сергеем Афонькиными - авторами многих отечественных книг по оригами.
Специально для этого релиза постер изготовил StarAlker


Качество: DVDRip
Размер кадра: 720×544 (4:3)
Формат: AVI
Видеокодек: XviD
Аудиокодек: MP3
Битрейт видео: ~755 Кбит/сек
Битрейт аудио: 105 Кбит/сек
Общее
Формат : AVI
Формат/Информация : Audio Video Interleave
Размер файла : 700 Мбайт
Продолжительность : 1 ч. 52 м.
Общий поток : 872 Кбит/сек
Программа кодирования : VirtualDubMod 1.5.4.1 (build 2178/release)
Библиотека кодирования : VirtualDubMod build 2178/release

Видео
Идентификатор : 0
Формат : MPEG-4 Visual
Параметр BVOP формата : 1
Параметр QPel формата : Нет
Параметр GMC формата : Без точки перехода
Параметр матрицы формата : Default (H.263)
Режим смешивания : Сжатый битовый поток
Идентификатор кодека : DX50
Идентификатор кодека/Подсказка : DivX 5
Продолжительность : 1 ч. 52 м.
Битрейт : 755 Кбит/сек
Ширина : 720 пикс.
Высота : 544 пикс.
Соотношение сторон : 4:3
Частота кадров : 25,000 кадр/сек
Цветовое пространство : YUV
Подвыборка цветности : 4:2:0
Битовая глубина : 8 бит
Тип развёртки : Прогрессивная
Метод сжатия : С потерями
Бит/(Пиксели*Кадры) : 0.077
Размер потока : 606 Мбайт (87%)
Библиотека кодирования : DivX 5.2.1 (WaffleDay) (UTC 2004-09-08)

Аудио
Идентификатор : 1
Формат : MPEG Audio
Версия формата : Version 1
Профиль формата : Layer 3
Режим : Joint stereo
Расширение режима : MS Stereo
Идентификатор кодека : 55
Идентификатор кодека/Подсказка : MP3
Продолжительность : 1 ч. 52 м.
Вид битрейта : Переменный
Битрейт : 105 Кбит/сек
Номинальный битрейт : 112 Кбит/сек
Каналы : 2 канала
Частота : 44,1 КГц
Метод сжатия : С потерями
Размер потока : 84,0 Мбайт (12%)
Выравнивание : Соединение по промежуткам
Продолжительность промежутка : 26 мс. (0,65 видеокадр)
Время предзагрузки промежутка : 566 ms
Библиотека кодирования : LAME3.97
Настройки программы : -m j -V 4 -q 2 -lowpass 15.6 --abr 112

   
Торрент: Зарегистрирован [07 фев 2018, 15:20] Разное (Видеоуроки) Скачать торрент Магнет ссылка
Скачать торрент
[ Размер 14.26 КБ / Просмотров 24 ]
Статус:
Проверен
 
.torrent скачан: 0 раз
Размер: 700.25 МБ (734 267 392 байт)
   Стать Автором раздачи
 
 
Цитата
  • Похожие торренты
    Ответы
    Просмотры
    Последнее сообщение

Вернуться в Разное (Видеоуроки)

Кто сейчас на конференции

Сейчас эту тему просматривают: нет зарегистрированных пользователей и гости: 1