Военная разведка. Первый удар [01-08 из 08] (2012) DVDRip-AVC от New-Team

 Статистика раздачи 
Размер: 5.89 ГБ   |  Зарегистрирован: 06 фев 2018, 16:47   |   .torrent скачан: 10 раз
Сидеров: 32  [ 0 байт/сек ]     Личеров: 10  [ 0 байт/сек ]  
  
Аватара пользователя
Я на сайте
 
Раздал: 3.58 ТБ
Скачал: 100.65 ГБ
Ратио: 36.447
Сообщения: 200445
Стаж: 1 год 8 месяцев 21 день


Год выпуска: 2012
Производство: Телепроект, кинокомпания "Gree"
Жанр: военный фильм, приключения
Продолжительность: 8 х ~00:51:00
Субтитры: нет
Режиссёр: Алексей Праздников
В ролях: Павел Трубинер, Филипп Азаров, Степан Бекетов, Борис Щербаков, Сергей Кошонин, Артур Ваха, Линда Лазарева, Николай Буров, Аркадий Шароградский, Елена Купрашевич, Андрей Кузнецов, Мария Жиганова, Федор Черных, Дарья Воронцова, Наталья Ермолаева, Геннадий Меньшиков
Описание: План захвата СССР «Барбаросса» в действии. Фашисты широко шагают по оккупированным советским землям.
В первом фильме нашим героям предстоит вырвать из лап врага захваченных на отдыхе советских ученых и их семьи.
Во втором фильме почти невыполнимым заданием станет для них ликвидация стратегического советского завода на оккупированной немцами территории.
В третьем фильме тонкой игры потребует миссия возвращения в немецкий тыл советского резидента, ведь нужно не только доставить его до места назначения, но и обеспечить ему безупречное алиби!
В четвертом фильме заданием наших разведчиков станет дестабилизация «нового экономического порядка», введенного немцами на новых землях рейха. Для этого нашим героям предстоит уничтожить не только «золотой» транспорт с рейхсмарками, но и ликвидировать «мозг» новой экономики — гаулейтера Белоруссии.
Как водится, разведчики столкнуться с умным и хитрым врагом и почти невыполнимыми заданиями, но отчаянная смелость, смекалка и верная дружба помогут им с честью выполнить все «особые поручения».





Исходник: DVD9 R5
Доп. информация: Данный сериал не войдёт в DVD5, поскольку иначе получилось бы слишком низкое качество. Исходник, несмотря на низкий битрейт, оказался вполне качественным.
Качество видео: DVDRip-AVC
Формат видео: MKV
Видео: 720x576@1024x576 (16:9), 25 fps, H264 ~ 1867 kbps avg, 0.180 bit/pixel
Аудио: AC3 2.0 (192Kbps) 48.0 KHZ
Релиз от:
Общее
Полное имя : Voennaya.razvedka.2012.O.DVDRip-AVC1.mkv
Формат : Matroska
Версия формата : Version 2
Размер файла : 763 Мбайт
Продолжительность : 51 м.
Общий поток : 2058 Кбит/сек
Дата кодирования : UTC 2012-05-19 13:02:54
Программа кодирования : mkvmerge v5.0.1 ('Es ist Sommer') built on Nov 6 2011 16:23:40
Библиотека кодирования : libebml v1.2.2 + libmatroska v1.3.0
Видео
Идентификатор : 1
Формат : AVC
Формат/Информация : Advanced Video Codec
Профиль формата : High@L4.1
Параметр CABAC формата : Да
Параметр ReFrames формата : 11 кадров
Идентификатор кодека : V_MPEG4/ISO/AVC
Продолжительность : 51 м.
Битрейт : 1867 Кбит/сек
Ширина : 720 пикселей
Высота : 576 пикселей
Соотношение сторон : 16:9
Частота кадров : 25,000 кадров/сек
Стандарт вещания : PAL
Цветовое пространство : YUV
Субдискретизация насыщенности : 4:2:0
Битовая глубина : 8 бит
Тип развёртки : Прогрессивная
Бит/(Пиксели*Кадры) : 0.180
Размер потока : 677 Мбайт (89%)
Библиотека кодирования : x264 core 119 r2106 07efeb4
Настройки программы : cabac=1 / ref=11 / deblock=1:0:0 / analyse=0x3:0x113 / me=umh / subme=10 / psy=1 / psy_rd=1.00:0.20 / mixed_ref=1 / me_range=32 / chroma_me=1 / trellis=2 / 8x8dct=1 / cqm=0 / deadzone=21,11 / fast_pskip=0 / chroma_qp_offset=-3 / threads=6 / sliced_threads=0 / nr=0 / decimate=0 / interlaced=0 / bluray_compat=0 / constrained_intra=0 / bframes=8 / b_pyramid=2 / b_adapt=2 / b_bias=0 / direct=3 / weightb=1 / open_gop=0 / weightp=2 / keyint=250 / keyint_min=25 / scenecut=40 / intra_refresh=0 / rc_lookahead=60 / rc=2pass / mbtree=1 / bitrate=1867 / ratetol=1.0 / qcomp=0.60 / qpmin=0 / qpmax=69 / qpstep=4 / cplxblur=20.0 / qblur=0.5 / ip_ratio=1.40 / aq=1:1.00
Default : Да
Forced : Нет
Аудио
Идентификатор : 2
Формат : AC-3
Формат/Информация : Audio Coding 3
Расширение режима : CM (complete main)
Параметр Endianness формата : Big
Идентификатор кодека : A_AC3
Продолжительность : 51 м.
Вид битрейта : Постоянный
Битрейт : 192 Кбит/сек
Каналы : 2 канала
Расположение каналов : Front: L R
Частота : 48,0 КГц
Битовая глубина : 16 бит
Метод сжатия : С потерями
Размер потока : 71,2 Мбайт (9%)
Default : Да
Forced : Нет




Не забывайте говорить Спасибо. Не уходите с раздачи!   
Торрент: Зарегистрирован [06 фев 2018, 16:47] Для скачивания .torrent
необходима регистрация
Или скачать с помощью
MediaGet
Статус:
Проверен
 
.torrent скачан: 10 раз
Хэш: 2d72ae47d3aef12e0eff1536ecd167e952c2594a
Размер: 5.89 ГБ (6 322 258 850 байт)
   Стать Автором раздачи
   
Цитата

Вернуться в Военная разведка

Кто сейчас на конференции

Сейчас эту тему просматривают: нет зарегистрированных пользователей и гости: 1