(House, Tribal, Downtempo) VA - Spiritual High - 1995, FLAC (tracks+.cue), lossless

 Статистика раздачи 
Размер: 302.71 МБ   |  Зарегистрирован: 04 фев 2018, 23:56   |   .torrent скачан: 0 раз
Сидеров: 1  [ 0 байт/сек ]     Личеров: 11  [ 0 байт/сек ]  
  
Аватара пользователя
 
Раздал: 0 байт
Скачал: 0 байт
Ратио: Inf.
Сообщения: 111963
Стаж: 7 лет 3 месяца 8 дней
Откуда: Rossiya

Spiritual High
Жанр: House, Tribal, Downtempo
Страна-производитель диска: UK
Год издания: 1995
Издатель (лейбл): OM Records
Номер по каталогу: OM 002
Аудиокодек: FLAC (*.flac)
Тип рипа: tracks+.cue
Битрейт аудио: lossless
Продолжительность: 51:04
Источник (релизер): what
Наличие сканов в содержимом раздачи: нет
Треклист:
1 Moodswings – Spiritual High (Part 1 & 2) 10:10
2 Future Sound Of London, The – FSOL Deseo Reconstruction 7:54
3 Entrancing Iris – Intransmission 5:26
4 Steve Roach – Desert Solitaire Composition Flatlands 4:54
5 Nusrat Fateh Ali Khan – Tracery 4:54
6 Geoffrey Oryema – Exile 3:53
7 African Head Charge – Pursuit 3:55
8 Tranquility Bass – Cantamilla 4:39
9 Fluid Motion – Elevation 5:19
Код: Выделить всё
EAC extraction logfile from 29. January 2008, 15:48 for CD
Various Artists / Spiritual High
Used drive  : PLEXTOR CD-R   PX-240A   Adapter: 1  ID: 1
Read mode   : Secure with NO C2, accurate stream, disable cache
Read offset correction : 6
Overread into Lead-In and Lead-Out : No
Used output format : flac 1.1.4   (User Defined Encoder)
                     128 kBit/s
                     Additional command line options : -8 -T "title=%t" -T "artist=%a" -T "album=%g" -T "date=%y" -T "tracknumber=%n" -T "genre=%m"  %s
Other options      :
    Fill up missing offset samples with silence : Yes
    Delete leading and trailing silent blocks : No
    Native Win32 interface for Win NT & 2000
Track  2
     Filename 02 - Moodswings - Spiritual High (Part 1 & 2).wav
     Peak level 97.7 %
     Track quality 100.0 %
     Test CRC E9EA0229
     Copy CRC E9EA0229
     Copy OK
Track  3
     Filename 03 - Future Sound of London - FSOL Deseo Reconstruction.wav
     Pre-gap length  0:00:01.97
     Peak level 96.1 %
     Track quality 100.0 %
     Test CRC EF9BB8A2
     Copy CRC EF9BB8A2
     Copy OK
Track  4
     Filename 04 - Entrancing Iris - Intransmission.wav
     Pre-gap length  0:00:01.97
     Peak level 100.0 %
     Track quality 100.0 %
     Test CRC 541BCD5C
     Copy CRC 541BCD5C
     Copy OK
Track  5
     Filename 05 - Steve Roach - Desert Solitaire Composition Flatlands.wav
     Pre-gap length  0:00:01.97
     Peak level 79.8 %
     Track quality 100.0 %
     Test CRC 29A2C281
     Copy CRC 29A2C281
     Copy OK
Track  6
     Filename 06 - Nusrat Fateh Ali Khan - Tracery.wav
     Pre-gap length  0:00:01.97
     Peak level 53.6 %
     Track quality 100.0 %
     Test CRC F340462C
     Copy CRC F340462C
     Copy OK
Track  7
     Filename 07 - Geoffrey Oryema - Exile.wav
     Pre-gap length  0:00:01.97
     Peak level 75.1 %
     Track quality 100.0 %
     Test CRC 44788135
     Copy CRC 44788135
     Copy OK
Track  8
     Filename 08 - African Head Charge - Pursuit.wav
     Pre-gap length  0:00:01.96
     Peak level 97.2 %
     Track quality 99.9 %
     Test CRC FA54BC71
     Copy CRC FA54BC71
     Copy OK
Track  9
     Filename 09 - Tranquility Bass - Cantamilla.wav
     Pre-gap length  0:00:01.97
     Peak level 79.2 %
     Track quality 100.0 %
     Test CRC 7E8DCDCE
     Copy CRC 7E8DCDCE
     Copy OK
Track 10
     Filename 10 - Fluid Motion - Elevation.wav
     Pre-gap length  0:00:01.96
     Peak level 100.0 %
     Track quality 100.0 %
     Test CRC 9E1C9E72
     Copy CRC 9E1C9E72
     Copy OK
No errors occured
End of status report
Код: Выделить всё
PERFORMER "Various Artists"
TITLE "Spiritual High"
REM GENRE Other
REM DATE 1995
REM DISCID 9910860A
REM COMMENT "ExactAudioCopy v0.95b4"
CATALOG 0000000000000
FILE "02 - Moodswings - Spiritual High (Part 1 & 2).flac" WAVE
  TRACK 02 AUDIO
    TITLE "Moodswings / Spiritual High (Part 1 & 2)"
    INDEX 01 00:00:00
  TRACK 03 AUDIO
    TITLE "Future Sound of London / FSOL Deseo Reconstruction"
    INDEX 00 10:08:73
FILE "03 - Future Sound of London - FSOL Deseo Reconstruction.flac" WAVE
    INDEX 01 00:00:00
  TRACK 04 AUDIO
    TITLE "Entrancing Iris / Intransmission"
    INDEX 00 07:52:69
FILE "04 - Entrancing Iris - Intransmission.flac" WAVE
    INDEX 01 00:00:00
  TRACK 05 AUDIO
    TITLE "Steve Roach / Desert Solitaire Composition Flatlands"
    INDEX 00 05:24:71
FILE "05 - Steve Roach - Desert Solitaire Composition Flatlands.flac" WAVE
    INDEX 01 00:00:00
  TRACK 06 AUDIO
    TITLE "Nusrat Fateh Ali Khan / Tracery"
    INDEX 00 04:52:54
FILE "06 - Nusrat Fateh Ali Khan - Tracery.flac" WAVE
    INDEX 01 00:00:00
  TRACK 07 AUDIO
    TITLE "Geoffrey Oryema / Exile"
    INDEX 00 04:52:32
FILE "07 - Geoffrey Oryema - Exile.flac" WAVE
    INDEX 01 00:00:00
  TRACK 08 AUDIO
    TITLE "African Head Charge / Pursuit"
    INDEX 00 03:51:45
FILE "08 - African Head Charge - Pursuit.flac" WAVE
    INDEX 01 00:00:00
  TRACK 09 AUDIO
    TITLE "Tranquility Bass / Cantamilla"
    INDEX 00 03:53:57
FILE "09 - Tranquility Bass - Cantamilla.flac" WAVE
    INDEX 01 00:00:00
  TRACK 10 AUDIO
    TITLE "Fluid Motion / Elevation"
    INDEX 00 04:37:53
FILE "10 - Fluid Motion - Elevation.flac" WAVE
    INDEX 01 00:00:00
Доп. информация: http://www.discogs.com/Various-Spiritual-High/release/336963
   
Торрент: Зарегистрирован [04 фев 2018, 23:56] Electronic Скачать торрент Магнет ссылка
Скачать торрент
[ Размер 13.49 КБ / Просмотров 5 ]
Статус:
Проверен
 
.torrent скачан: 0 раз
Размер: 302.71 МБ (317 409 577 байт)
   Стать Автором раздачи
 
 
Шапка детская "Красная шапочка". Детские шапки для бани. Изделие для защиты волос и кожи головы от воздействия высокой температуры в бане и сауне, декорированная цветными нитями
Цитата
Случайная аватара. Подставляется автоматически при отсутствии установленной пользователем аватары. Рекомендуется менять на свою или жить с Лоховской Аватаркой ))).
Раздал: 50.27 ГБ
Скачал: 282.12 МБ
Ратио: 182.482
Сообщения: 1
Стаж: 1 месяц 3 дня
СообщениеДобавлено: 22 апр 2018, 16:49
Здравствуйте! Можете раздать этот торент?!
Цитата
Аватара пользователя
Главный редактор
Главный редактор
Я на сайте
Раздал: 27.33 ТБ
Скачал: 2.37 ТБ
Ратио: 11.965
Сообщения: 94117
Стаж: 7 лет 6 месяцев 30 дней
Откуда: Санкт-Петербург
СообщениеДобавлено: 22 апр 2018, 23:25
И вам вечера доброго.
Можем...... , можем и раздаём ;)
Цитата

  • Похожие торренты
    Ответы
    Просмотры
    Последнее сообщение

Вернуться в Electronic

Кто сейчас на конференции

Сейчас эту тему просматривают: нет зарегистрированных пользователей и гости: 1