Застенок / The Jailhouse [ужасы, триллер, детектив, 2009] BDRip 1080p, Mvo

 Статистика раздачи 
Размер: 5.32 ГБ   |  Зарегистрирован: 23 сен 2017, 18:21   |   .torrent скачан: 202 раз
Сидеров: 264  [ 0 байт/сек ]     Личеров: 88  [ 0 байт/сек ]  
  
Аватара пользователя
 
Раздал: 1.65 ТБ
Скачал: 4.12 ГБ
Ратио: 410.151
Сообщения: 105977
Стаж: 1 год 1 месяц

Год выхода: 2009
Жанр: ужасы, триллер, детектив
Режиссер: Билли Льюис

В ролях: Кен Агиляр, Сири Барук, Даррен Далтон, Билл Джордж, С. Томас Хауэлл, Томми Линдси, Филлип Трой Линджер, Брэндон Люк, Брайан Махони, ...

О фильме: Получив место шерифа, Сет Делрей с семьей были уверены, что наконец сбылась их мечта. Уютный маленький городок — просто рай для их небольшого семейства. Заселившись в предназначенный им дом, супруги были абсолютно счастливы. Но вскоре, случившийся в местной тюрьме пожар, разрушил их недолгую идиллию. Спасшихся заключенных, можно было разместить только в их доме. И вместе с ними, в дом переехали и призраки прошлого. Страшная трагедия, разразившаяся более 30 лет назад, вновь может потрясти маленький городок…

Страна: США
Продолжительность: 01:26:50
Перевод: Профессиональный (многоголосый, закадровый) R5 от «Lizard Cinema Trade»

Кодек: x264
Качество: BDRip 1080p
Видео: 1920x816, 8000 kbps, 23,976 fps
Аудио #2: AC-3, 2 ch, 192 kbps (Rus) - MVO R5 «Lizard Cinema Trade» 2.0
Аудио #2: AC-3, 6 ch, 384 kbps (Rus) - MVO R5 «Lizard Cinema Trade» 5.1
Аудио #3: AC-3, 2 ch, 192 kbps (Eng)
Субтитры: русские
Код: Выделить всё
x264 [info]: frame I:843 Avg QP:17.13 size:116711
x264 [info]: frame P:27501 Avg QP:19.92 size: 65450
x264 [info]: frame B:96583 Avg QP:21.60 size: 34266
x264 [info]: consecutive B-frames: 2.5% 3.5% 7.5% 18.5% 13.0% 43.9% 5.2% 1.4% 2.0% 0.8% 1.8%

Общее
Уникальный идентификатор : 172460598825682094862677852634208974789 (0x81BEB401AC61AE36A75AA236938EB7C5)
Полное имя : Застенок (The Jailhouse) 2009 BDRip 1080p.mkv
Формат : Matroska
Версия формата : Version 2
Размер файла : 5,32 Гбайт
Продолжительность : 1 ч. 26 м.
Общий поток : 8763 Кбит/сек
Название фильма : Застенок / The Jailhouse (2009) BDRip-AVC rip by Rulya74
Дата кодирования : UTC 2017-08-26 05:44:02
Программа кодирования : mkvmerge v4.0.0 ('The Stars were mine') сборка от Jun 6 2010 16:18:42
Библиотека кодирования : libebml v1.0.0 + libmatroska v1.0.0

Видео
Идентификатор : 1
Формат : AVC
Формат/Информация : Advanced Video Codec
Профиль формата : [email protected]
Параметр CABAC формата : Да
Параметр ReFrames формата : 5 кадров
Идентификатор кодека : V_MPEG4/ISO/AVC
Продолжительность : 1 ч. 26 м.
Битрейт : 8000 Кбит/сек
Ширина : 1920 пикселей
Высота : 816 пикселей
Соотношение сторон : 2,35:1
Режим частоты кадров : Постоянный
Частота кадров : 23,976 (24000/1001) кадра/сек
Цветовое пространство : YUV
Субдискретизация насыщенности : 4:2:0
Битовая глубина : 8 бит
Тип развёртки : Прогрессивная
Бит/(Пиксели*Кадры) : 0.213
Размер потока : 4,74 Гбайт (89%)
Библиотека кодирования : x264 core 146 r2538 121396c
Настройки программы : cabac=1 / ref=5 / deblock=1:-3:-3 / analyse=0x3:0x133 / me=umh / subme=11 / psy=1 / psy_rd=1.00:0.00 / mixed_ref=1 / me_range=32 / chroma_me=1 / trellis=2 / 8x8dct=1 / cqm=0 / deadzone=21,11 / fast_pskip=0 / chroma_qp_offset=-2 / threads=12 / lookahead_threads=2 / sliced_threads=0 / nr=0 / decimate=0 / interlaced=0 / bluray_compat=0 / constrained_intra=0 / bframes=10 / b_pyramid=2 / b_adapt=2 / b_bias=0 / direct=3 / weightb=1 / open_gop=0 / weightp=2 / keyint=240 / keyint_min=23 / scenecut=40 / intra_refresh=0 / rc=2pass / mbtree=0 / bitrate=8000 / ratetol=1.0 / qcomp=0.60 / qpmin=0 / qpmax=69 / qpstep=4 / cplxblur=20.0 / qblur=0.5 / ip_ratio=1.40 / pb_ratio=1.30 / aq=1:0.80
Язык : English
Default : Нет
Forced : Нет

Аудио #1
Идентификатор : 2
Формат : AC-3
Формат/Информация : Audio Coding 3
Расширение режима : CM (complete main)
Параметр Endianness формата : Big
Идентификатор кодека : A_AC3
Продолжительность : 1 ч. 26 м.
Вид битрейта : Постоянный
Битрейт : 192 Кбит/сек
Каналы : 2 канала
Расположение каналов : Front: L R
Частота : 48,0 КГц
Частота кадров : 31,250 кадров/сек (1536 spf)
Метод сжатия : С потерями
Размер потока : 119 Мбайт (2%)
Заголовок : MVO R5 «Lizard Cinema Trade» 2.0
Язык : Russian
Default : Нет
Forced : Нет

Аудио #2
Идентификатор : 3
Формат : AC-3
Формат/Информация : Audio Coding 3
Расширение режима : CM (complete main)
Параметр Endianness формата : Big
Идентификатор кодека : A_AC3
Продолжительность : 1 ч. 26 м.
Вид битрейта : Постоянный
Битрейт : 384 Кбит/сек
Каналы : 6 каналов
Расположение каналов : Front: L C R, Side: L R, LFE
Частота : 48,0 КГц
Частота кадров : 31,250 кадров/сек (1536 spf)
Метод сжатия : С потерями
Задержка видео : 1 с. 20 мс.
Размер потока : 239 Мбайт (4%)
Заголовок : MVO R5 «Lizard Cinema Trade» 5.1
Язык : Russian
Default : Нет
Forced : Нет

Аудио #3
Идентификатор : 4
Формат : AC-3
Формат/Информация : Audio Coding 3
Расширение режима : CM (complete main)
Параметр Endianness формата : Big
Идентификатор кодека : A_AC3
Продолжительность : 1 ч. 26 м.
Вид битрейта : Постоянный
Битрейт : 192 Кбит/сек
Каналы : 2 канала
Расположение каналов : Front: L R
Частота : 48,0 КГц
Частота кадров : 31,250 кадров/сек (1536 spf)
Метод сжатия : С потерями
Размер потока : 119 Мбайт (2%)
Язык : English
Default : Нет
Forced : Нет

Текст
Идентификатор : 5
Формат : UTF-8
Идентификатор кодека : S_TEXT/UTF8
Идентификатор кодека/Информация : UTF-8 Plain Text
Язык : Russian
Default : Нет
Forced : Нет

   
Торрент: Зарегистрирован [23 сен 2017, 18:21] Скачать торрент Магнет ссылка
Скачать торрент
[ Размер 28.28 КБ / Просмотров 10 ]
Статус:
Проверен
 
.torrent скачан: 202 раз
Размер: 5.32 ГБ (5 707 320 568 байт)
   Стать Автором раздачи
 
 
Цитата
  • Похожие торренты
    Ответы
    Просмотры
    Последнее сообщение

Вернуться в Зарубежное кино (HD Video)

Кто сейчас на конференции

Сейчас эту тему просматривают: нет зарегистрированных пользователей и гости: 1