Большой солдат / Little Big Soldier / Da bing xiao jiang [Боевик, комедия, приключения, 2010] BDRip 720p, Mvo

 Статистика раздачи 
Размер: 1.96 ГБ   |  Зарегистрирован: 01 сен 2017, 07:46   |   .torrent скачан: 96 раз
Сидеров: 44  [ 0 байт/сек ]     Личеров: 16  [ 0 байт/сек ]  
  
Аватара пользователя
 
Раздал: 1.84 ТБ
Скачал: 4.79 ГБ
Ратио: 394.318
Сообщения: 135661
Стаж: 1 год 2 месяца 5 дней

Год выхода: 2010
Жанр: Боевик, комедия, приключения
Режиссер: Динг Шенг

В ролях: Джеки Чан, Ван Лихом, Стив Ю, Лин Пенг, Ду Ю Мин, Джин Сон, Ксяо Донг Мей, Кен Ло, Ю Рон Гуан, Ву Юе

О фильме: В эпоху враждующих царств Китай сотрясали междоусобные войны. Самое сильное — Цинь начало покорять другие одно за другим. Однако вражда между теми, что еще оставались непокоренными, не прекращалась. Армии царств Лян и Вэй сошлись в жестокой битве. Столь жестокой, что к ее исходу лишь двое воинов уцелели — молодой благородный полководец, возглавлявший армию Вэй, и простой солдат войска Лян — умудренный жизнью человек, который больше всего на свете не хотел бы именно воевать… Теперь ему выпала редкая удача — он захватывает раненного вражеского военачальника в плен. Если он сумеет доставить пленника своему повелителю — почет, уважение, земельный надел, а главное — возвращение к родному дому ожидают его. Но как проделать долгий и опасный путь двум заклятым врагам? Один — молод, преисполнен достоинства, как человек высокого положения, второй — слишком много прожил, чтобы быть пылким, и слишком долго трудился на земле, чтобы не любить ее. Они стремятся к разным целям, но общий путь объединяет их. Каждый сделает свой выбор и у каждого он будет — единственно верным. Веселая и грустная, наполненная головокружительными приключениями и жестокими схватками история, рассказанная Джеки Чаном, в неожиданном финале ставит перед зрителем вопрос, на который не у каждого найдется ответ…



Страна: Гонконг, Китай
Продолжительность: 01:35:27
Перевод: Профессиональный (многоголосый закадровый)

Файл
Кодек: H.264
Качество: BDRip 720p от SuperMin
Видео: 1056x448 (2.35:1), 2558 kbps, 24.000 fps
Звук: Русский (AC-3, 6ch, 384 kbps)
Субтитры: Русские, английские
Код: Выделить всё
General
Unique ID : 219913125053769706839050695440335828759 (0xA571BA2E65FBCDA0A31B2CDD77EEF717)
Complete name : F:ФИЛЬМЫДЖЕКИ ЧАН--Большой.Солдат.2010.x264.BDRip-AVC.MVO.mkv
Format : Matroska
Format version : Version 4 / Version 2
File size : 1.96 GiB
Duration : 1 h 35 min
Overall bit rate : 2 944 kb/s
Movie name : Маленький большой солдат / Little Big Soldier / Da bing xiao jiang (2010) - #LORDKILL#
Encoded date : UTC 2017-08-31 16:37:07
Writing application : mkvmerge v9.5.0 ('Quiet Fire') 64bit
Writing library : libebml v1.3.4 + libmatroska v1.4.5

Video
ID : 1
Format : AVC
Format/Info : Advanced Video Codec
Format profile : [email protected]
Format settings, CABAC : Yes
Format settings, ReFrames : 13 frames
Codec ID : V_MPEG4/ISO/AVC
Duration : 1 h 35 min
Bit rate : 2 558 kb/s
Width : 1 056 pixels
Height : 448 pixels
Display aspect ratio : 2.35:1
Frame rate mode : Constant
Frame rate : 24.000 FPS
Color space : YUV
Chroma subsampling : 4:2:0
Bit depth : 8 bits
Scan type : Progressive
Bits/(Pixel*Frame) : 0.225
Stream size : 1.71 GiB (87%)
Writing library : x264 core 146 r2538 121396c
Encoding settings : cabac=1 / ref=13 / deblock=1:-3:-3 / analyse=0x3:0x113 / me=umh / subme=11 / psy=1 / psy_rd=1.00:0.10 / mixed_ref=1 / me_range=64 / chroma_me=1 / trellis=2 / 8x8dct=1 / cqm=0 / deadzone=21,11 / fast_pskip=0 / chroma_qp_offset=-3 / threads=12 / lookahead_threads=2 / sliced_threads=0 / nr=0 / decimate=1 / interlaced=0 / bluray_compat=0 / constrained_intra=0 / bframes=7 / b_pyramid=2 / b_adapt=2 / b_bias=0 / direct=1 / weightb=1 / open_gop=0 / weightp=2 / keyint=240 / keyint_min=23 / scenecut=40 / intra_refresh=0 / rc=crf / mbtree=0 / crf=19.0 / qcomp=0.60 / qpmin=0 / qpmax=69 / qpstep=4 / ip_ratio=1.40 / pb_ratio=1.30 / aq=1:1.00
Default : Yes
Forced : No

Audio
ID : 2
Format : AC-3
Format/Info : Audio Coding 3
Mode extension : CM (complete main)
Format settings, Endianness : Big
Codec ID : A_AC3
Duration : 1 h 35 min
Bit rate mode : Constant
Bit rate : 384 kb/s
Channel(s) : 6 channels
Channel positions : Front: L C R, Side: L R, LFE
Sampling rate : 48.0 kHz
Frame rate : 31.250 FPS (1536 spf)
Bit depth : 16 bits
Compression mode : Lossy
Stream size : 262 MiB (13%)
Title : Профессиональный (многоголосый, закадровый)
Language : Russian
Default : Yes
Forced : No

Text #1
ID : 3
Format : UTF-8
Codec ID : S_TEXT/UTF8
Codec ID/Info : UTF-8 Plain Text
Duration : 1 h 31 min
Bit rate : 54 b/s
Count of elements : 788
Stream size : 36.6 KiB (0%)
Language : Russian
Default : No
Forced : No

Text #2
ID : 4
Format : UTF-8
Codec ID : S_TEXT/UTF8
Codec ID/Info : UTF-8 Plain Text
Duration : 1 h 31 min
Bit rate : 32 b/s
Count of elements : 825
Stream size : 21.6 KiB (0%)
Language : English
Default : No
Forced : No

   
Торрент: Зарегистрирован [01 сен 2017, 07:46] Скачать торрент Магнет ссылка
Скачать торрент
[ Размер 21.45 КБ / Просмотров 8 ]
Статус:
Проверен
 
.torrent скачан: 96 раз
Размер: 1.96 ГБ (2 107 324 203 байт)
   Стать Автором раздачи
 
 
Цитата
  • Похожие торренты
    Ответы
    Просмотры
    Последнее сообщение

Вернуться в Зарубежное кино (HD Video)

Кто сейчас на конференции

Сейчас эту тему просматривают: нет зарегистрированных пользователей и гости: 1