Тайны следствия-17 / Сезон: 17 / Серии: 1-24 из 24 (Владимир Шевельков, Егор Баринов) [2017, детектив, криминал, HDTV 1080p]

 Статистика раздачи 
Размер: 62 ГБ   |  Зарегистрирован: 01 фев 2018, 18:41   |   .torrent скачан: 0 раз
Сидеров: 3  [ 0 байт/сек ]     Личеров: 1  [ 0 байт/сек ]  
  
Аватара пользователя
 
Раздал: 0 байт
Скачал: 0 байт
Ратио: Inf.
Сообщения: 184681
Стаж: 7 лет 9 месяцев 27 дней
Откуда: Rossiya

Тайны следствия-17
Год выпуска: 2017
Производство: Россия,"Студия "Панорама"
Жанр: детектив, криминал
Продолжительность: 00:51:00
Субтитры: Нет
Режиссёр: Владимир Шевельков, Егор Баринов
В ролях: Анна Ковальчук, Вячеслав Захаров, Игорь Николаев , Александр Новиков , Ольга Павловец, Мирослав Малич, Юлия Яковлева, Андрей Шарков, Александр Шпилько, Светлана Щедрина, Злата Ильченко, Владимир Постников, Степан Пивкин, Александр Чевычелов, Антон Ксенев, Варвара Александрова, Владимир Шевельков
Описание: Бывший следователь Мария Сергеевна Швецова продолжает адвокатскую деятельность в качестве государственного защитника. В ее жизни произошли серьезные изменения – она не только сменила работу и квартиру, но и развелась с Луганским, оказавшимся не тем человеком, каким она его себе представляла.
Тем временем, в Следственном отделе по Заневскому району появляется новый следователь – Борис Андреевич Шипов, прибывший в Санкт-Петербург из Ростова. Резкий, нагловатый, со специфическим чувством юмора и не менее специфическими методами ведения дел, он сразу не вписался в дружный коллектив Следственного отдела.
Реклама: Нет
Качество: HDTV 1080p
Формат: MKV
Видео кодек: AVC
Аудио кодек: AC3
Видео: AVC, 1920x1080 (16:9), 7051 kbps, 25 fps, 0,136 bpp
Аудио: AC3 / 2.0 / 48 kHz / 192 kbps
Общее
Уникальный идентификатор : 227841910743342927904912512852924065773 (0xAB68C17F4CEAA900B2CD1B77100467ED)
Полное имя : G:\Тайны следствие 17\1 Серия.mkv
Формат : Matroska
Версия формата : Version 4 / Version 2
Размер файла : 2,58 Гбайт
Продолжительность : 51 м. 2 с.
Режим общего битрейта : Постоянный
Общий поток : 7228 Кбит/сек
Название фильма : Tajny sledstviya.s17.e01.2017.HDTV 1080p.by.White Smoke.R.G.Generalfilm.mkv
Дата кодирования : UTC 2017-12-12 16:39:14
Программа кодирования : mkvmerge v6.8.0 ('Theme for Great Cities') 64bit built on Mar 2 2014 21:34:26
Библиотека кодирования : libebml v1.3.0 + libmatroska v1.4.1
Видео
Идентификатор : 1
Формат : AVC
Формат/Информация : Advanced Video Codec
Профиль формата : High@L4.1
Настройки формата : CABAC / 3 Ref Frames
Параметр CABAC формата : Да
Параметр RefFrames формата : 3 кадра
Идентификатор кодека : V_MPEG4/ISO/AVC
Продолжительность : 51 м. 2 с.
Вид битрейта : Постоянный
Битрейт : 7051 Кбит/сек
Ширина : 1920 пикселей
Высота : 1080 пикселей
Соотношение сторон : 16:9
Режим частоты кадров : Постоянный
Частота кадров : 25,000 кадров/сек
Стандарт вещания : PAL
Цветовое пространство : YUV
Субдискретизация насыщенности : 4:2:0
Битовая глубина : 8 бит
Тип развёртки : Прогрессивная
Бит/(Пиксели*Кадры) : 0.136
Размер потока : 2,46 Гбайт (95%)
Default : Да
Forced : Нет
Цветовой диапазон : Limited
Основные цвета : BT.709
Характеристики трансфера : BT.709
Коэффициенты матрицы : BT.709
Аудио
Идентификатор : 2
Формат : AC-3
Формат/Информация : Audio Coding 3
Идентификатор кодека : A_AC3
Продолжительность : 51 м. 2 с.
Вид битрейта : Постоянный
Битрейт : 192 Кбит/сек
Каналы : 2 канала
Расположение каналов : Front: L R
Частота : 48,0 КГц
Частота кадров : 31,250 кадров/сек (1536 SPF)
Битовая глубина : 16 бит
Метод сжатия : С потерями
Размер потока : 70,1 Мбайт (3%)
ServiceKind/String : Complete Main
Default : Да
Forced : Нет
Раздача ведётся путём добавления новых выпусков. При каждом добавлении создётся новый торрент. Чтобы начать докачку новой серии, пользователям необходимо сделать следующее:
(1) остановить скачивание,
(2) удалить старый торрент у себя из клиента (старые серии удалять не надо),
(3) скачать новый торрент и запустить его у себя в клиенте вместо старого, при этом указать клиенту путь в старую папку куда и должно происходить скачивание новых серий.
Ваш клиент при этом должен произвести хеширование (проверку) старой папки (если не производит сам - помогите ему сделать это), и будет докачивать только те серии которых у вас ещё нет. Старые серии при этом не удаляются, а продолжают раздаваться!
Eсли вы уже удалили старые серии, то предотвратить повторную закачку старых серий можно, отжав галочку в соответсвующих местах при запуске нового торрента.
Предыдущие и альтернативные раздачи
Не забывайте говорить Спасибо. Не уходите с раздачи!   
Торрент: Зарегистрирован [01 фев 2018, 18:41] Для скачивания .torrent
необходима регистрация
Или скачать с помощью
MediaGet
Статус:
Проверен
 
.torrent скачан: 0 раз
Хэш: d7689f55f8f3dd1122e8baa2fd3aaa044af6fe30
Размер: 62 ГБ (66 573 661 338 байт)
   Стать Автором раздачи
   
Цитата
  • Похожие торренты
    Ответы
    Просмотры
    Последнее сообщение

Вернуться в Тайны следствия

Кто сейчас на конференции

Сейчас эту тему просматривают: нет зарегистрированных пользователей и гости: 1