Неделя акул (1-8 серии из 8) / Discovery. Shark Week (Discovery Channel HD) [2017, документальный, исследование, акулы, хищники, HDTVRip 720р] DUB

 Статистика раздачи 
Размер: 10.21 ГБ   |  Зарегистрирован: 07 авг 2017, 19:14   |   .torrent скачан: 0 раз
Сидеров: 2  [ 0 байт/сек ]     Личеров: 2  [ 0 байт/сек ]  
  
Аватара пользователя
Автор темы
Раздал: 1013.44 ГБ
Скачал: 3.28 ГБ
Ратио: 308.762
Сообщения: 2571
Стаж: 6 месяцев 30 дней

Оригинальное название: Discovery. Shark Week
Дата выхода: 2017
Страна: USA
Продолжительность: 8 х ~ 00:44:00
Жанр: документальный, исследование, акулы, хищники
Перевод: Дублированный
Описание: "Неделя акул" - это один из самых популярных циклов документальных передач об этом морском хищнике на канале Discovery. Это поистине удивительные рыбы. Они преодолевают расстояния в тысячи миль, в поисках богатых охотничьих угодий, для того чтобы размножаться в благоприятных условиях. Модели перемещений акул могут быть намного сложнее, чем даже у птиц, они охватывают все океанские бассейны. Узнайте больше про этих устрашающих хищников морей и океанов вместе с каналом Discovery.
Контейнер: MKV
Качество HD: HDTVRip 720р
Видео: 1280x720 (16:9), 25,000 fps, AVC (х264), [email protected], 4000 Кбит/сек, ~ 0.087 bit/pixel
Аудио: 48 kHz, MPEG Layer 2, 2 ch, ~192.00 kbps avg
Код: Выделить всё
Общее
Уникальный идентификатор : 229708242133820577233901928157410152230 (0xACD032BD38FCE7F0F744409447FECF26)
Полное имя : F:\КИНО\Неделя акул 720p HitWay\01 Неделя акул Акулы-убийцы.mkv
Формат : Matroska
Версия формата : Version 2
Размер файла : 1,28 Гбайт
Продолжительность : 43 м. 33 с.
Режим общего битрейта : Постоянный
Общий поток : 4198 Кбит/сек
Программа кодирования : Lavf54.63.104
Библиотека кодирования : Lavf54.63.104

Видео
Идентификатор : 1
Формат : AVC
Формат/Информация : Advanced Video Codec
Профиль формата : [email protected]
Параметр CABAC формата : Да
Параметр RefFrames формата : 3 кадра
Идентификатор кодека : V_MPEG4/ISO/AVC
Продолжительность : 43 м. 33 с.
Вид битрейта : Постоянный
Битрейт : 4000 Кбит/сек
Ширина : 1280 пикселей
Высота : 720 пикселей
Соотношение сторон : 16:9
Режим частоты кадров : Постоянный
Частота кадров : 50,000 кадров/сек
Стандарт вещания : PAL
Цветовое пространство : YUV
Субдискретизация насыщенности : 4:2:0
Битовая глубина : 8 бит
Тип развёртки : Прогрессивная
Бит/(Пиксели*Кадры) : 0.087
Размер потока : 1,19 Гбайт (93%)
Default : Нет
Forced : Нет
Цветовой диапазон : Limited
Основные цвета : BT.709
Характеристики трансфера : BT.709
Коэффициенты матрицы : BT.709

Аудио
Идентификатор : 2
Формат : MPEG Audio
Версия формата : Version 1
Профиль формата : Layer 2
Идентификатор кодека : A_MPEG/L2
Идентификатор кодека/Подсказка : MP2
Продолжительность : 43 м. 33 с.
Вид битрейта : Постоянный
Битрейт : 192 Кбит/сек
Каналы : 2 канала
Частота : 48,0 КГц
Метод сжатия : С потерями
Задержка видео : 12 мс.
Размер потока : 59,8 Мбайт (5%)
Язык : English
Default : Да
Forced : Нет


Список серий
01. Акулы-убийцы / Shark Assassins.
Доктор Майкл Домейер попытается остановить хищницу, которая каждые два года нападает на людей.

02. В клетке / In a cage.
Команда исследователей погрузится в воды Мексиканского залива, чтобы встретиться с самой смертоносной акулой.

03. Акула-молот выходитна охоту / The hammerhead shark goes out hunting.
Тристан Гаттридж попробует выяснить, зачем молотоголовые акулы ежегодно приплывают к побережью Флориды.

04. Акулы в большом городе: Нью-Йорк / Sharks in a big city: New York.
Биолог Крэйг О'Коннелл попытается выяснить, почему в водах мегаполиса становится всё больше хищников.

05. Остров челюстей / Island of the jaws.
Энди Касагранде и Джонатан Уэрри вернутся на злополучный остров, чтобы выяснить, почему там собрались только самцы акулы и куда делись все самки.

06. Акулы из другого мира:акулы-пришельцы / Sharks from another world: alien sharks.
Группа специалистов отправится на поиски самых необычных акул в мире, в том числе глубоководных акул-домовых.

07. Майкл Феллс:школа акул / Michael Fells: Shark School.
Прежде, чем начать самую необычайную гонку в своей жизни. Майклу Фелису предстоит пройти усиленный курс акуловедения. На биостанции Бимини спортсмен узнает все об этих грозных хищниках и научится погружаться в непосредственной близи от своей будущей соперницы.

08. Майкл Феллс:наперегонки с акулой / Michael Fells: race with a shark.
Самый титулованный пловец в мире Майкл Феллс принимает новый вызов-23 кратный олимпийский чемпион попробует обогнать белую акулу! Есть ли у него шанс, если скорость спортсмена достигает 10 км/ч, а у хищницы - 40 км/ч? Нам предстоит узнать это совсем скоро!
   
Торрент: Зарегистрирован [07 авг 2017, 19:14] Скачать торрент Магнет ссылка
Скачать торрент
[ Размер 26.98 КБ / Просмотров 14 ]
Статус:
Проверен
 
.torrent скачан: 0 раз
Размер: 10.21 ГБ (10 966 285 161 байт)
   
 
 
Цитата

Вернуться в Discovery

Кто сейчас на конференции

Сейчас эту тему просматривают: нет зарегистрированных пользователей и гости: 1