Ольга / Сезон: 1 / Серии: 1-20 из 20 (Алексей Нужный, Игорь Волошин) [2016, комедия, драма, HDTV 1080i]

 Статистика раздачи 
Размер: 17.45 ГБ   |  Зарегистрирован: 01 фев 2018, 18:17   |   .torrent скачан: 5 раз
Сидеров: 37  [ 0 байт/сек ]     Личеров: 12  [ 0 байт/сек ]  
  
Аватара пользователя
 
Раздал: 0 байт
Скачал: 0 байт
Ратио: Inf.
Сообщения: 184681
Стаж: 7 лет 9 месяцев 26 дней
Откуда: Rossiya

Ольга
Год выпуска: 2016
Производство: Good Story Media
Жанр: комедия, драма
Продолжительность: ~00:24:00 серия
Субтитры: нет
Режиссёр: Алексей Нужный, Игорь Волошин
В ролях: Яна Троянова, Ксения Суркова, Сергей Романович, Мухаммед Абу-Ризик, Алина Алексеева, Василий Кортуков, Максим Костромыкин, Филипп Ершов, Александр Шам, Светлана Костюкова, Ирина Цывина, Сергей Гусенков, Тимофей Зайцев
Описание: Главная героиня воспитывает двух детей от разных браков, заботится об отце-алкоголике и пытается наладить личную жизнь. Старшая дочь Анька учится в ПТУ, думает, что она единственный адекватный член семьи и в её жизни все будет по-другому, младший сын Тимофей, чей отец вернулся к первой семье в Азербайджан, считает, что он уже мужчина, хотя ему всего лишь 11 лет, отец Ольги, бывший футболист, крепко выпивает и постоянно врет, а сестра Ленка пытается жить за счет мужчин, в основном — женатых. Вечно спасая родственников от неприятностей, Ольга живет чужой жизнью и редко думает о себе — до тех пор, пока в нее не влюбляется молодой и положительный водитель газели «Ритуал» Гриша.
Реклама: Нет.

Все раздачи сериала
Sample
Качество: HDTV 1080i - Nikolspup
Формат: TS
Видео кодек: AVC
Аудио кодек: MP2
Видео: MPEG4 AVC Video, H264, 16:9, 1920x1080, 25 fps, ~6200 kbps
Аудио: MP2, 2 ch, 192 kbps, 16 bits, 48.0 KHz
General
ID : 1 (0x1)
Complete name : E:\Ольга 1 сезон 2016 HDTV 1080i\Olga.01.(01.seriya.iz.20).2016.HDTV.(1080i).Nikolspup.ts
Format : MPEG-TS
File size : 1.00 GiB
Duration : 21mn 7s
Overall bit rate mode : Variable
Overall bit rate : 6 809 Kbps
Video
ID : 67 (0x43)
Menu ID : 1 (0x1)
Format : AVC
Format/Info : Advanced Video Codec
Format profile : High@L4.0
Format settings, CABAC : Yes
Format settings, ReFrames : 4 frames
Format settings, GOP : M=4, N=28
Codec ID : 27
Duration : 21mn 7s
Bit rate : 6 279 Kbps
Width : 1 920 pixels
Height : 1 080 pixels
Display aspect ratio : 16:9
Frame rate : 25.000 fps
Standard : Component
Color space : YUV
Chroma subsampling : 4:2:0
Bit depth : 8 bits
Scan type : Interlaced
Scan order : Top Field First
Bits/(Pixel*Frame) : 0.121
Stream size : 949 MiB (92%)
Color primaries : BT.709
Transfer characteristics : BT.709
Matrix coefficients : BT.709
Audio
ID : 68 (0x44)
Menu ID : 1 (0x1)
Format : MPEG Audio
Format version : Version 1
Format profile : Layer 2
Codec ID : 3
Duration : 21mn 7s
Bit rate mode : Constant
Bit rate : 192 Kbps
Channel count : 2 channels
Sampling rate : 48.0 KHz
Compression mode : Lossy
Delay relative to video : -40ms
Stream size : 29.0 MiB (3%)
Language : Russian


Не забывайте говорить Спасибо. Не уходите с раздачи!   
Торрент: Зарегистрирован [01 фев 2018, 18:17] Для скачивания .torrent
необходима регистрация
Или скачать с помощью
MediaGet
Статус:
Проверен
 
.torrent скачан: 5 раз
Хэш: 0a07faed1d868e82d0d4ed51d6759c153b434ccf
Размер: 17.45 ГБ (18 740 249 652 байт)
   Стать Автором раздачи
   
Цитата

Вернуться в Ольга / Физрук

Кто сейчас на конференции

Сейчас эту тему просматривают: нет зарегистрированных пользователей и гости: 1