Ольга / Сезон: 2 / Серии: 1-20 из 20 (Алексей Нужный, Игорь Волошин) [2017, Комедия, драма, WEBRip]

 Статистика раздачи 
Размер: 5.81 ГБ   |  Зарегистрирован: 01 фев 2018, 18:17   |   .torrent скачан: 0 раз
Сидеров: 34  [ 0 байт/сек ]     Личеров: 11  [ 0 байт/сек ]  
  
Аватара пользователя
 
Раздал: 0 байт
Скачал: 0 байт
Ратио: Inf.
Сообщения: 160606
Стаж: 7 лет 6 месяцев 2 дня
Откуда: Rossiya

Ольга
Год выпуска: 2017
Производство: Россия, Гуд Стори Медиа
Жанр: Комедия, драма
Продолжительность: ~ 00:24:00 / Серия
Субтитры: Нет
Режиссёр: Алексей Нужный, Игорь Волошин
В ролях: Яна Троянова, Василий Кортуков, Алина Алексеева, Ксения Суркова, Сергей Романович, Максим Костромыкин, Фархад Гусейнов, Борис Дергачев, Александр Шам, Александр Никольский
Описание: Ольга — обычная русская женщина, которая одна «воспитывает» детей от разных браков, отца-алкоголика и бесшабашную сестру. При этом она остаётся жизнерадостной, сохраняет оптимизм и верит в «светлое» будущее.

Качество: WEBRip
Формат: AVI
Видео кодек: XviD
Аудио кодек: MP3
Видео: XviD, 720x400 (16:9), ~ 1800 Кбит/с, 25 кадр/с, 0.275 bit/pixel
Аудио: Русский, MP3, 48000 Гц, 128 Кбит/с, 2 канала (Стерео)
Все раздачи сериала

Автор рипа - ivandubskoj
General
Complete name : Ol'ga.s02.e01.2017.WEB-DLRip.avi
Format : AVI
Format/Info : Audio Video Interleave
File size : 323 MiB
Duration : 23mn 20s
Overall bit rate : 1 938 Kbps
Writing application : VirtualDubMod 1.5.10.3 | (build 2550/release)
Writing library : VirtualDubMod build 2550/release
Video
ID : 0
Format : MPEG-4 Visual
Format profile : Advanced [email protected]
Format settings, BVOP : 1
Format settings, QPel : No
Format settings, GMC : No warppoints
Format settings, Matrix : Custom
Codec ID : XVID
Codec ID/Hint : XviD
Duration : 23mn 20s
Bit rate : 1 800 Kbps
Width : 720 pixels
Height : 400 pixels
Display aspect ratio : 16:9
Frame rate : 25.000 fps
Color space : YUV
Chroma subsampling : 4:2:0
Bit depth : 8 bits
Scan type : Progressive
Compression mode : Lossy
Bits/(Pixel*Frame) : 0.250
Stream size : 300 MiB (93%)
Writing library : XviD 73
Audio
ID : 1
Format : MPEG Audio
Format version : Version 1
Format profile : Layer 3
Codec ID : 55
Codec ID/Hint : MP3
Duration : 23mn 20s
Bit rate mode : Constant
Bit rate : 128 Kbps
Channel(s) : 2 channels
Sampling rate : 48.0 KHz
Compression mode : Lossy
Stream size : 21.4 MiB (7%)
Alignment : Aligned on interleaves
Interleave, duration : 40 ms (1.00 video frame)
Interleave, preload duration : 504 ms
Writing library : LAME3.99r
Encoding settings : -m s -V 4 -q 0 -lowpass 17 -b 128
   
Торрент: Зарегистрирован [01 фев 2018, 18:17] Ольга / Физрук Скачать торрент Магнет ссылка
Скачать торрент
[ Размер 30.73 КБ / Просмотров 2 ]
Статус:
Проверен
 
.torrent скачан: 0 раз
Размер: 5.81 ГБ (6 234 382 336 байт)
   Стать Автором раздачи
 
 
Цитата

Вернуться в Ольга / Физрук

Кто сейчас на конференции

Сейчас эту тему просматривают: нет зарегистрированных пользователей и гости: 1